<?xml version="1.0" encoding="UTF-8" standalone="no"?>
<!-- Generator: PDFTron PDF2SVG Converter (DEMO VERSION) -->

<svg
   xmlns:dc="http://purl.org/dc/elements/1.1/"
   xmlns:cc="http://creativecommons.org/ns#"
   xmlns:rdf="http://www.w3.org/1999/02/22-rdf-syntax-ns#"
   xmlns:svg="http://www.w3.org/2000/svg"
   xmlns="http://www.w3.org/2000/svg"
   xmlns:sodipodi="http://sodipodi.sourceforge.net/DTD/sodipodi-0.dtd"
   xmlns:inkscape="http://www.inkscape.org/namespaces/inkscape"
   id="svgRoot"
   viewBox="0 0 138.9383 53.686699"
   xml:space="preserve"
   version="1.1"
   inkscape:version="0.48.2 r9819"
   width="100%"
   height="100%"
   sodipodi:docname="crossmedia_broc_2013_final_1.svg"><metadata
   id="metadata1765"><rdf:RDF><cc:Work
       rdf:about=""><dc:format>image/svg+xml</dc:format><dc:type
         rdf:resource="http://purl.org/dc/dcmitype/StillImage" /><dc:title></dc:title></cc:Work></rdf:RDF></metadata><sodipodi:namedview
   pagecolor="#ffffff"
   bordercolor="#666666"
   borderopacity="1"
   objecttolerance="10"
   gridtolerance="10"
   guidetolerance="10"
   inkscape:pageopacity="0"
   inkscape:pageshadow="2"
   inkscape:window-width="1920"
   inkscape:window-height="1174"
   id="namedview1763"
   showgrid="false"
   fit-margin-top="0"
   fit-margin-left="0"
   fit-margin-right="0"
   fit-margin-bottom="0"
   inkscape:zoom="0.39643877"
   inkscape:cx="-242.48301"
   inkscape:cy="-209.9471"
   inkscape:window-x="-4"
   inkscape:window-y="-4"
   inkscape:window-maximized="1"
   inkscape:current-layer="svgRoot" />
<defs
   id="defs3">
<font
   horiz-adv-x="0"
   id="font5"
   horiz-origin-x="0"
   horiz-origin-y="0"
   vert-origin-x="45"
   vert-origin-y="90"
   vert-adv-y="90"><font-face
   font-family="fnt0"
   units-per-em="1000"
   ascent="938"
   descent="-250"
   id="font-face7" />
<missing-glyph
   horiz-adv-x="0"
   id="missing-glyph9" />
<glyph
   unicode=" "
   horiz-adv-x="240"
   d="M0 0 Z"
   id="glyph11" />
<glyph
   unicode=","
   horiz-adv-x="240"
   d="M69,-74L171,0L171,102L69,102L69,-74 Z"
   id="glyph13" />
<glyph
   unicode="-"
   horiz-adv-x="407"
   d="M53,226L354,226L354,328L53,328L53,226 Z"
   id="glyph15" />
<glyph
   unicode="0"
   horiz-adv-x="480"
   d="M340,205C340,136,300,96,240,96C180,96,140,136,140,205L140,507C140,576,180,616,240,616C300,616,340,576,340,507L340,205M38,199C38,68,135,-6,240,-6C345,-6,442,68,442,199L442,513C442,644,345,718,240,718C135,718,38,644,38,513L38,199 Z"
   id="glyph17" />
<glyph
   unicode="1"
   horiz-adv-x="480"
   d="M194,0L296,0L296,712L194,712L93,638L93,530L194,604L194,0 Z"
   id="glyph19" />
<glyph
   unicode="2"
   horiz-adv-x="480"
   d="M32,0L438,0L438,102L166,102L395,389C425,426,438,467,438,514C438,627,349,718,230,718C123,718,33,629,32,513L134,513C139,577,183,616,238,616C299,616,336,565,336,515C336,494,332,472,310,444L32,96L32,0 Z"
   id="glyph21" />
<glyph
   unicode="3"
   horiz-adv-x="480"
   d="M176,322L219,322C279,322,329,280,329,209C329,139,278,96,221,96C163,96,134,128,115,177L13,177C32,58,119,-6,215,-6C336,-6,431,80,431,212C431,270,407,330,347,368C406,406,423,461,423,515C423,619,340,718,213,718C112,718,25,631,17,530L119,530C130,588,174,616,217,616C274,616,321,571,321,513C321,455,279,412,211,412L176,412L176,322 Z"
   id="glyph23" />
<glyph
   unicode="4"
   horiz-adv-x="480"
   d="M12,106L309,106L309,0L411,0L411,106L468,106L468,202L411,202L411,407L309,407L309,202L123,202L364,712L250,712L12,202L12,106 Z"
   id="glyph25" />
<glyph
   unicode="B"
   horiz-adv-x="610"
   d="M75,0L375,0C482,0,573,79,573,202C573,274,535,348,457,366L457,368C540,405,562,462,562,521C562,633,490,712,351,712L75,712L75,0M349,316C429,316,465,265,465,209C465,153,429,102,349,102L183,102L183,316L349,316M339,616C417,616,454,569,454,514C454,458,417,412,339,412L183,412L183,616L339,616 Z"
   id="glyph27" />
<glyph
   unicode="C"
   horiz-adv-x="556"
   d="M441,199C411,135,365,102,305,102C254,102,217,126,195,154C167,190,159,210,159,356C159,502,167,522,195,558C217,586,254,610,305,610C373,610,424,562,441,507L555,507C533,623,440,718,305,718C193,718,116,652,82,590C59,548,51,527,51,356C51,185,59,164,82,122C116,60,193,-6,305,-6C427,-6,527,66,555,199L441,199 Z"
   id="glyph29" />
<glyph
   unicode="D"
   horiz-adv-x="630"
   d="M75,0L317,0C423,0,497,52,539,118C571,168,579,196,579,356C579,505,576,532,541,592C495,670,418,712,324,712L75,712L75,0M183,610L312,610C370,610,406,595,439,550C468,511,471,480,471,352C471,220,468,200,444,164C416,123,373,102,312,102L183,102L183,610 Z"
   id="glyph31" />
<glyph
   unicode="E"
   horiz-adv-x="556"
   d="M75,0L530,0L530,102L183,102L183,311L479,311L479,407L183,407L183,610L530,610L530,712L75,712L75,0 Z"
   id="glyph33" />
<glyph
   unicode="G"
   horiz-adv-x="610"
   d="M306,290L451,290L451,253C451,164,387,102,305,102C254,102,217,126,195,154C167,190,159,210,159,356C159,502,167,522,195,558C217,586,254,610,305,610C373,610,424,562,441,507L555,507C533,623,440,718,305,718C193,718,116,652,82,590C59,548,51,527,51,356C51,185,59,164,82,122C116,60,193,-6,305,-6C447,-6,559,106,559,247L559,392L306,392L306,290 Z"
   id="glyph35" />
<glyph
   unicode="I"
   horiz-adv-x="258"
   d="M75,0L183,0L183,712L75,712L75,0 Z"
   id="glyph37" />
<glyph
   unicode="L"
   horiz-adv-x="556"
   d="M75,0L530,0L530,102L183,102L183,712L75,712L75,0 Z"
   id="glyph39" />
<glyph
   unicode="N"
   horiz-adv-x="684"
   d="M75,0L183,0L183,506L185,506L507,0L609,0L609,712L501,712L501,206L499,206L177,712L75,712L75,0 Z"
   id="glyph41" />
<glyph
   unicode="O"
   horiz-adv-x="610"
   d="M51,356C51,185,59,164,82,122C116,60,193,-6,305,-6C417,-6,494,60,528,122C551,164,559,185,559,356C559,527,551,548,528,590C494,652,417,718,305,718C193,718,116,652,82,590C59,548,51,527,51,356M159,356C159,502,167,522,195,558C217,586,254,610,305,610C356,610,393,586,415,558C443,522,451,502,451,356C451,210,443,190,415,154C393,126,356,102,305,102C254,102,217,126,195,154C167,190,159,210,159,356 Z"
   id="glyph43" />
<glyph
   unicode="R"
   horiz-adv-x="610"
   d="M183,616L352,616C389,616,411,609,431,594C453,578,467,550,467,513C467,453,427,400,346,400L183,400L183,616M75,0L183,0L183,304L321,304L468,0L596,0L431,316C517,346,569,421,569,513C569,577,538,631,498,665C460,698,413,712,353,712L75,712L75,0 Z"
   id="glyph45" />
<glyph
   unicode="S"
   horiz-adv-x="574"
   d="M13,92C88,26,180,-6,285,-6C438,-6,535,70,535,201C535,298,473,390,340,406C306,410,279,414,260,417C188,428,159,468,159,508C159,576,212,610,278,610C341,610,402,588,454,555L514,644C449,687,371,718,283,718C136,718,51,632,51,510C51,407,117,327,240,310C277,305,302,301,334,297C398,289,427,251,427,201C427,142,374,102,286,102C210,102,138,130,84,173L13,92 Z"
   id="glyph47" />
<glyph
   unicode="T"
   horiz-adv-x="500"
   d="M196,0L304,0L304,616L499,616L499,712L1,712L1,616L196,616L196,0 Z"
   id="glyph49" />
<glyph
   unicode="U"
   horiz-adv-x="630"
   d="M62,241C62,93,174,-6,315,-6C456,-6,568,93,568,241L568,712L460,712L460,253C460,155,397,102,315,102C233,102,170,155,170,253L170,712L62,712L62,241 Z"
   id="glyph51" />
<glyph
   unicode="|"
   horiz-adv-x="222"
   d="M72,-250L150,-250L150,750L72,750L72,-250 Z"
   id="glyph53" />
</font>
<font
   horiz-adv-x="0"
   id="font55"
   horiz-origin-x="0"
   horiz-origin-y="0"
   vert-origin-x="45"
   vert-origin-y="90"
   vert-adv-y="90"><font-face
   font-family="fnt1"
   units-per-em="1000"
   ascent="937"
   descent="-250"
   id="font-face57" />
<missing-glyph
   horiz-adv-x="0"
   id="missing-glyph59" />
<glyph
   unicode=" "
   horiz-adv-x="186"
   d="M0 0 Z"
   id="glyph61" />
<glyph
   unicode="E"
   horiz-adv-x="370"
   d="M48,0L352,0L352,102L150,102L150,311L326,311L326,407L150,407L150,616L352,616L352,712L48,712L48,0 Z"
   id="glyph63" />
<glyph
   unicode="G"
   horiz-adv-x="426"
   d="M42,168C42,52,130,-6,213,-6C296,-6,384,52,384,168L384,392L201,392L201,302L282,302L282,168C282,119,250,96,213,96C176,96,144,119,144,168L144,544C144,593,176,616,213,616C250,616,282,593,282,544L282,508L384,508L384,544C384,660,296,718,213,718C130,718,42,660,42,544L42,168 Z"
   id="glyph65" />
<glyph
   unicode="H"
   horiz-adv-x="426"
   d="M48,0L150,0L150,317L276,317L276,0L378,0L378,712L276,712L276,407L150,407L150,712L48,712L48,0 Z"
   id="glyph67" />
<glyph
   unicode="I"
   horiz-adv-x="204"
   d="M51,0L153,0L153,712L51,712L51,0 Z"
   id="glyph69" />
<glyph
   unicode="K"
   horiz-adv-x="426"
   d="M48,0L150,0L150,213L205,316L321,0L429,0L264,427L403,712L301,712L152,387L150,387L150,712L48,712L48,0 Z"
   id="glyph71" />
<glyph
   unicode="N"
   horiz-adv-x="444"
   d="M44,0L146,0L146,428L148,428L304,0L400,0L400,712L298,712L298,283L296,283L142,712L44,712L44,0 Z"
   id="glyph73" />
<glyph
   unicode="P"
   horiz-adv-x="407"
   d="M48,0L150,0L150,278L202,278C277,278,322,306,350,352C374,391,379,433,379,495C379,580,368,625,333,662C298,699,257,712,201,712L48,712L48,0M150,616L203,616C283,616,283,561,283,494C283,423,282,374,199,374L150,374L150,616 Z"
   id="glyph75" />
<glyph
   unicode="T"
   horiz-adv-x="332"
   d="M115,0L217,0L217,616L335,616L335,712L-3,712L-3,616L115,616L115,0 Z"
   id="glyph77" />
<glyph
   unicode="c"
   horiz-adv-x="370"
   d="M150,353C150,391,169,411,200,411C231,411,250,392,250,351L352,351C352,445,294,513,200,513C138,513,91,484,67,440C53,414,48,378,48,337L48,170C48,129,53,93,67,67C91,23,138,-6,200,-6C247,-6,284,11,311,39C337,66,352,105,352,147L250,147C248,125,239,96,200,96C169,96,150,114,150,146L150,353 Z"
   id="glyph79" />
<glyph
   unicode="e"
   horiz-adv-x="370"
   d="M337,215L337,355C337,444,279,513,185,513C123,513,76,484,52,440C38,414,33,378,33,337L33,170C33,129,38,93,52,67C76,23,123,-6,185,-6C232,-6,269,11,296,39C322,66,337,105,337,147L235,147C233,125,224,96,185,96C154,96,135,114,135,146L135,215L337,215M135,353C135,391,154,411,185,411C216,411,235,391,235,353L235,295L135,295L135,353 Z"
   id="glyph81" />
<glyph
   unicode="n"
   horiz-adv-x="389"
   d="M42,0L144,0L144,341C144,386,157,411,195,411C227,411,245,388,245,351L245,0L347,0L347,389C347,480,293,513,242,513C195,513,167,490,146,458L144,458L144,507L42,507L42,0 Z"
   id="glyph83" />
<glyph
   unicode="o"
   horiz-adv-x="370"
   d="M33,170C33,129,38,93,52,67C76,23,123,-6,185,-6C247,-6,294,23,318,67C332,93,337,129,337,170L337,337C337,378,332,414,318,440C294,484,247,513,185,513C123,513,76,484,52,440C38,414,33,378,33,337L33,170M135,353C135,391,154,411,185,411C216,411,235,391,235,353L235,154C235,116,216,96,185,96C154,96,135,116,135,154L135,353 Z"
   id="glyph85" />
<glyph
   unicode="p"
   horiz-adv-x="389"
   d="M42,-205L144,-205L144,46L146,46C168,13,200,-6,240,-6C289,-6,314,13,331,40C344,61,347,90,347,163L347,356C347,412,342,443,330,465C312,498,282,513,241,513C190,513,170,490,144,461L144,507L42,507L42,-205M245,156C245,124,234,96,195,96C166,96,144,119,144,151L144,348C144,385,164,411,195,411C230,411,245,383,245,342L245,156 Z"
   id="glyph87" />
<glyph
   unicode="r"
   horiz-adv-x="278"
   d="M42,0L144,0L144,301C144,384,205,411,248,411C259,411,269,409,279,405L279,513C220,513,186,490,144,453L144,507L42,507L42,0 Z"
   id="glyph89" />
<glyph
   unicode="s"
   horiz-adv-x="352"
   d="M323,365C322,449,262,513,179,513C97,513,29,451,29,365C29,297,68,249,132,225L181,207C220,192,232,173,232,145C232,111,204,90,175,90C137,90,124,119,120,147L24,147C28,47,96,-6,176,-6C264,-6,328,63,328,147C328,207,304,261,228,290L168,314C130,329,125,347,125,366C125,392,143,417,175,417C202,417,226,399,227,365L323,365 Z"
   id="glyph91" />
<glyph
   unicode="t"
   horiz-adv-x="204"
   d="M42,507L-9,507L-9,427L42,427L42,119C42,65,73,0,165,0L207,0L207,96C162,96,144,99,144,146L144,427L207,427L207,507L144,507L144,661L42,661L42,507 Z"
   id="glyph93" />
<glyph
   unicode="u"
   horiz-adv-x="389"
   d="M347,507L245,507L245,166C245,121,232,96,194,96C162,96,144,119,144,156L144,507L42,507L42,118C42,27,96,-6,147,-6C194,-6,222,17,243,49L245,49L245,0L347,0L347,507 Z"
   id="glyph95" />
<glyph
   unicode="v"
   horiz-adv-x="352"
   d="M353,507L245,507L177,183L175,183L107,507L-1,507L131,0L221,0L353,507 Z"
   id="glyph97" />
</font>
<font
   horiz-adv-x="0"
   id="font99"
   horiz-origin-x="0"
   horiz-origin-y="0"
   vert-origin-x="45"
   vert-origin-y="90"
   vert-adv-y="90"><font-face
   font-family="fnt2"
   units-per-em="1000"
   ascent="932"
   descent="-235"
   id="font-face101" />
<missing-glyph
   horiz-adv-x="0"
   id="missing-glyph103" />
<glyph
   unicode=" "
   horiz-adv-x="225"
   d="M0 0 Z"
   id="glyph105" />
<glyph
   unicode="-"
   horiz-adv-x="353"
   d="M313,207L313,350L40,350L40,207L313,207 Z"
   id="glyph107" />
<glyph
   unicode="."
   horiz-adv-x="285"
   d="M245,85C245,140,198,186,142,186C86,186,40,140,40,85C40,28,86,-18,142,-18C198,-18,245,28,245,85 Z"
   id="glyph109" />
<glyph
   unicode="A"
   horiz-adv-x="597"
   d="M609,0L398,697L212,697L-12,0L176,0L214,134L379,134L415,0L609,0M343,272L253,272L281,386C291,431,298,467,300,493C301,467,306,428,313,399L343,272 Z"
   id="glyph111" />
<glyph
   unicode="C"
   horiz-adv-x="555"
   d="M555,59L478,181C439,146,403,135,358,135C321,135,292,152,269,179C240,213,235,268,235,383C235,465,246,501,280,536C298,555,327,563,358,563C396,563,431,550,462,526L538,658C506,689,431,709,360,709C238,709,137,660,78,551C44,488,30,422,30,335C30,236,55,145,110,84C174,14,252,-12,338,-12C440,-12,511,18,555,59 Z"
   id="glyph113" />
<glyph
   unicode="E"
   horiz-adv-x="498"
   d="M478,0L478,149L239,149L239,291L413,291L413,433L239,433L239,550L452,550L465,697L60,697L60,0L478,0 Z"
   id="glyph115" />
<glyph
   unicode="F"
   horiz-adv-x="434"
   d="M444,697L60,697L60,0L239,0L239,291L395,291L395,433L238,433L238,550L431,550L444,697 Z"
   id="glyph117" />
<glyph
   unicode="G"
   horiz-adv-x="657"
   d="M607,620C540,678,455,708,364,708C301,708,257,699,205,672C89,612,30,484,30,335C30,240,49,173,96,107C155,25,235,-12,351,-12C441,-12,522,8,602,57L602,397L318,397L338,255L423,255L423,145C404,137,381,135,358,135C275,135,234,203,234,342C234,498,272,563,366,563C419,563,471,545,508,509L607,620 Z"
   id="glyph119" />
<glyph
   unicode="H"
   horiz-adv-x="621"
   d="M561,0L561,697L382,697L382,441L239,441L239,697L60,697L60,0L239,0L239,293L382,293L382,0L561,0 Z"
   id="glyph121" />
<glyph
   unicode="I"
   horiz-adv-x="303"
   d="M243,0L243,697L60,697L60,0L243,0 Z"
   id="glyph123" />
<glyph
   unicode="K"
   horiz-adv-x="632"
   d="M652,0L434,378L617,697L395,697L241,375L416,0L652,0M239,0L239,697L60,697L60,0L239,0 Z"
   id="glyph125" />
<glyph
   unicode="L"
   horiz-adv-x="478"
   d="M478,148L241,148L241,697L60,697L60,0L444,0L478,148 Z"
   id="glyph127" />
<glyph
   unicode="M"
   horiz-adv-x="853"
   d="M803,0L739,697L527,697L456,431C441,376,435,342,429,289L428,289C422,345,415,382,405,421L337,697L118,697L50,0L230,0L244,278C246,322,247,360,247,422L248,422C253,360,261,321,271,282L345,0L497,0L582,290C593,327,598,362,606,421L607,421C607,361,609,325,612,281L629,0L803,0 Z"
   id="glyph129" />
<glyph
   unicode="N"
   horiz-adv-x="641"
   d="M581,0L581,697L411,697L411,481C411,435,412,366,417,325C400,372,379,421,359,458L232,697L60,697L60,0L230,0L230,196C230,282,224,346,220,373C235,328,256,278,274,242L397,0L581,0 Z"
   id="glyph131" />
<glyph
   unicode="O"
   horiz-adv-x="686"
   d="M656,375C656,528,587,709,350,709C166,709,30,579,30,331C30,122,142,-12,344,-12C593,-12,656,175,656,375M456,353C456,174,423,129,347,129C273,129,230,173,230,351C230,484,264,569,345,569C422,569,456,527,456,353 Z"
   id="glyph133" />
<glyph
   unicode="P"
   horiz-adv-x="578"
   d="M568,480C568,639,464,697,287,697L60,697L60,0L239,0L239,248L295,248C523,248,568,377,568,480M373,481C373,405,347,390,291,390L239,390L239,550L301,550C344,550,373,539,373,481 Z"
   id="glyph135" />
<glyph
   unicode="R"
   horiz-adv-x="606"
   d="M601,0C578,52,519,181,496,228C479,264,450,296,426,303C508,317,571,378,571,498C571,614,505,697,300,697L60,697L60,0L239,0L239,276C278,276,294,267,321,195L394,0L601,0M372,484C372,437,351,408,290,408L239,408L239,550L289,550C345,550,372,534,372,484 Z"
   id="glyph137" />
<glyph
   unicode="T"
   horiz-adv-x="516"
   d="M536,697L10,697L10,549L172,549L172,0L353,0L353,549L515,549L536,697 Z"
   id="glyph139" />
<glyph
   unicode="U"
   horiz-adv-x="634"
   d="M579,215L579,697L400,697L400,239C400,171,382,135,318,135C255,135,235,178,235,242L235,697L55,697L55,223C55,130,62,112,89,75C130,17,207,-12,317,-12C455,-12,532,42,562,100C576,128,579,155,579,215 Z"
   id="glyph141" />
<glyph
   unicode="W"
   horiz-adv-x="868"
   d="M873,697L682,697L647,524C633,456,612,311,608,249L607,249C603,334,589,411,579,464L534,697L335,697L299,504C280,401,268,304,264,248L263,248C262,274,256,352,223,509L184,697L-5,697L164,0L359,0L396,202C413,293,428,396,430,431L431,431C434,387,450,286,465,202L501,0L692,0L873,697 Z"
   id="glyph143" />
<glyph
   unicode="a"
   horiz-adv-x="516"
   d="M495,76C459,99,455,134,455,177L457,355C457,393,456,412,449,435C430,496,361,529,263,529C178,529,95,495,31,456L94,348C138,381,183,402,241,402C279,402,283,384,283,354L283,322C278,323,261,323,254,323C110,323,25,253,25,155C25,63,74,-13,202,-13C263,-13,306,9,331,30C339,14,370,-13,395,-21L495,76M283,124C277,116,257,107,242,107C212,107,194,127,194,157C194,187,210,216,283,214L283,124 Z"
   id="glyph145" />
<glyph
   unicode="c"
   horiz-adv-x="459"
   d="M449,60L376,162C352,135,320,116,281,116C231,116,220,159,220,264C220,379,242,401,283,401C307,401,336,384,356,363L436,468C385,510,341,529,277,529C122,529,30,426,30,253C30,78,120,-13,264,-13C327,-13,394,5,449,60 Z"
   id="glyph147" />
<glyph
   unicode="d"
   horiz-adv-x="549"
   d="M508,0C493,40,489,74,489,205L489,709L315,732L315,593C315,567,318,526,321,511C307,520,277,529,252,529C99,529,30,399,30,248C30,84,105,-13,237,-13C289,-13,325,3,349,31C350,22,352,12,357,0L508,0M315,135C309,126,295,118,277,118C227,118,219,171,219,245C219,362,233,395,278,395C294,395,310,386,315,375L315,135 Z"
   id="glyph149" />
<glyph
   unicode="e"
   horiz-adv-x="523"
   d="M498,203L498,246C499,423,431,529,265,529C119,529,30,425,30,255C30,88,121,-13,286,-13C363,-13,427,8,496,61L429,161C384,126,338,109,293,109C221,109,210,171,210,203L498,203M326,316L210,316C210,385,234,408,271,408C313,408,328,373,326,316 Z"
   id="glyph151" />
<glyph
   unicode="i"
   horiz-adv-x="294"
   d="M234,0L234,524L60,508L60,0L234,0M247,652C247,706,204,750,149,750C93,750,47,706,47,652C47,598,92,554,146,554C202,554,247,598,247,652 Z"
   id="glyph153" />
<glyph
   unicode="l"
   horiz-adv-x="304"
   d="M322,3L294,111C288,109,282,108,276,108C237,108,234,132,234,223L234,606C234,659,231,704,226,735L54,706C61,666,60,586,60,518L60,166C60,63,63,-13,210,-13C258,-13,299,-6,322,3 Z"
   id="glyph155" />
<glyph
   unicode="m"
   horiz-adv-x="803"
   d="M743,0L743,376C743,505,675,529,603,529C543,529,496,510,455,473C428,506,394,529,339,529C295,529,250,510,214,478C213,497,209,510,204,528L44,501C57,446,60,390,60,328L60,0L229,0L229,375C243,386,269,395,285,395C318,395,320,388,320,320L320,0L483,0L483,372C501,383,528,392,539,392C569,392,576,388,576,319L576,0L743,0 Z"
   id="glyph157" />
<glyph
   unicode="o"
   horiz-adv-x="535"
   d="M510,271C510,456,401,529,274,529C123,529,25,417,25,256C25,85,116,-13,264,-13C387,-13,510,67,510,271M322,276C322,153,309,109,268,109C219,109,213,153,213,253C213,381,231,408,267,408C308,408,322,379,322,276 Z"
   id="glyph159" />
<glyph
   unicode="r"
   horiz-adv-x="376"
   d="M386,516C362,526,346,531,321,531C266,531,236,495,215,467C215,488,209,510,204,528L44,501C58,445,60,380,60,314L60,0L234,0L234,353C246,374,265,390,295,390C315,390,328,386,346,376L386,516 Z"
   id="glyph161" />
<glyph
   unicode="s"
   horiz-adv-x="509"
   d="M484,171C484,252,447,302,356,322L292,336C250,345,238,359,238,377C238,394,256,406,283,406C317,406,359,395,410,368L464,476C414,498,362,529,260,529C131,529,48,459,48,353C48,280,86,229,169,212L236,198C287,187,304,179,304,151C304,132,281,112,250,112C199,112,115,157,81,178L20,52C98,11,170,-13,244,-13C388,-13,484,59,484,171 Z"
   id="glyph163" />
<glyph
   unicode="v"
   horiz-adv-x="472"
   d="M492,516L314,516L275,380C260,329,247,270,241,220L239,220C227,275,211,339,202,369L156,523L-20,506L171,0L305,0L492,516 Z"
   id="glyph165" />
</font>
</defs>
</svg>
