<?xml version="1.0" encoding="UTF-8" standalone="no"?>
<!-- Generator: PDFTron PDF2SVG Converter (DEMO VERSION) -->

<svg
   xmlns:dc="http://purl.org/dc/elements/1.1/"
   xmlns:cc="http://creativecommons.org/ns#"
   xmlns:rdf="http://www.w3.org/1999/02/22-rdf-syntax-ns#"
   xmlns:svg="http://www.w3.org/2000/svg"
   xmlns="http://www.w3.org/2000/svg"
   xmlns:sodipodi="http://sodipodi.sourceforge.net/DTD/sodipodi-0.dtd"
   xmlns:inkscape="http://www.inkscape.org/namespaces/inkscape"
   id="svgRoot"
   viewBox="0 0 600 600"
   xml:space="preserve"
   version="1.1"
   inkscape:version="0.48.2 r9819"
   width="100%"
   height="100%"
   sodipodi:docname="atar_A4_couche.svg"><metadata
   id="metadata641"><rdf:RDF><cc:Work
       rdf:about=""><dc:format>image/svg+xml</dc:format><dc:type
         rdf:resource="http://purl.org/dc/dcmitype/StillImage" /><dc:title></dc:title></cc:Work></rdf:RDF></metadata><sodipodi:namedview
   pagecolor="#ffffff"
   bordercolor="#666666"
   borderopacity="1"
   objecttolerance="10"
   gridtolerance="10"
   guidetolerance="10"
   inkscape:pageopacity="0"
   inkscape:pageshadow="2"
   inkscape:window-width="1920"
   inkscape:window-height="1174"
   id="namedview639"
   showgrid="false"
   inkscape:zoom="1"
   inkscape:cx="163.65"
   inkscape:cy="420.95"
   inkscape:window-x="-4"
   inkscape:window-y="-4"
   inkscape:window-maximized="1"
   inkscape:current-layer="svgRoot" />
<defs
   id="defs3">
<font
   horiz-adv-x="0"
   id="font5"
   horiz-origin-x="0"
   horiz-origin-y="0"
   vert-origin-x="45"
   vert-origin-y="90"
   vert-adv-y="90"><font-face
   font-family="fnt1"
   units-per-em="1000"
   ascent="954"
   descent="-174"
   id="font-face7" />
<missing-glyph
   horiz-adv-x="0"
   id="missing-glyph9" />
<glyph
   unicode=" "
   horiz-adv-x="255"
   d="M0 0 Z"
   id="glyph11" />
<glyph
   unicode="+"
   horiz-adv-x="514"
   d="M281,240L461,240L461,287L281,287L281,467L234,467L234,287L53,287L53,240L234,240L234,59L281,59L281,240 Z"
   id="glyph13" />
<glyph
   unicode="-"
   horiz-adv-x="426"
   d="M82,240L344,240L344,287L82,287L82,240 Z"
   id="glyph15" />
<glyph
   unicode="."
   horiz-adv-x="264"
   d="M95,0L169,0L169,74L95,74L95,0 Z"
   id="glyph17" />
<glyph
   unicode="1"
   horiz-adv-x="514"
   d="M262,0L313,0L313,712L262,712L133,601L133,540L262,654L262,0 Z"
   id="glyph19" />
<glyph
   unicode="2"
   horiz-adv-x="514"
   d="M72,0L449,0L449,45L133,45L400,394C436,441,449,478,449,531C449,643,375,718,261,718C144,718,73,637,73,531L124,531C124,631,187,673,261,673C348,673,398,616,398,531C398,490,386,456,358,420L72,45L72,0 Z"
   id="glyph21" />
<glyph
   unicode="3"
   horiz-adv-x="514"
   d="M447,190C447,281,412,341,332,368C404,399,433,454,433,530C433,645,356,719,244,719C140,719,62,656,51,544L102,544C111,624,160,674,244,674C321,674,382,623,382,530C382,438,337,387,241,387L229,387L229,342L241,342C350,342,396,286,396,190C396,95,330,38,245,38C170,38,101,76,93,173L42,173C50,50,134,-7,245,-7C360,-7,447,63,447,190 Z"
   id="glyph23" />
<glyph
   unicode="4"
   horiz-adv-x="514"
   d="M376,117L471,117L471,162L376,162L376,388L325,388L325,162L97,162L359,712L305,712L43,162L43,117L325,117L325,0L376,0L376,117 Z"
   id="glyph25" />
<glyph
   unicode="7"
   horiz-adv-x="514"
   d="M207,0L459,667L459,712L86,712L86,555L137,555L137,667L407,667L155,0L207,0 Z"
   id="glyph27" />
<glyph
   unicode="9"
   horiz-adv-x="514"
   d="M443,518C443,634,374,718,254,718C134,718,66,625,66,511C66,400,132,312,249,312C281,312,309,318,333,329L169,0L220,0L403,369C432,429,443,471,443,518M392,515C392,419,338,357,254,357C163,357,117,430,117,515C117,611,170,673,254,673C338,673,392,611,392,515 Z"
   id="glyph29" />
<glyph
   unicode="a"
   horiz-adv-x="524"
   d="M380,0L431,0L431,330C431,431,372,488,244,488C165,488,115,471,74,414L111,382C142,426,176,443,244,443C343,443,380,402,380,325L380,271L224,271C119,271,56,220,56,132C56,96,68,61,91,38C122,6,161,-6,233,-6C301,-6,339,7,380,48L380,0M380,230L380,168C380,124,371,93,353,76C318,43,277,39,233,39C145,39,107,69,107,133C107,198,148,230,230,230L380,230 Z"
   id="glyph31" />
<glyph
   unicode="c"
   horiz-adv-x="493"
   d="M440,68L405,100C364,55,332,39,281,39C226,39,182,60,153,103C129,138,120,176,120,241C120,306,129,344,153,379C182,422,226,443,281,443C332,443,364,428,405,382L440,414C389,471,347,488,281,488C149,488,69,394,69,241C69,88,149,-6,281,-6C347,-6,389,11,440,68 Z"
   id="glyph33" />
<glyph
   unicode="e"
   horiz-adv-x="523"
   d="M120,230L455,230L455,253C455,401,383,488,262,488C141,488,69,397,69,241C69,80,141,-6,274,-6C354,-6,399,19,448,68L410,98C369,57,334,40,277,40C174,40,120,107,120,230M404,271L120,271C123,318,126,331,137,362C158,413,206,443,262,443C318,443,366,413,387,362C400,333,401,317,404,271 Z"
   id="glyph35" />
<glyph
   unicode="g"
   horiz-adv-x="540"
   d="M443,-27L443,482L392,482L392,420C349,476,304,488,249,488C198,488,156,471,131,446C82,397,69,317,69,241C69,165,82,85,131,36C156,11,198,-6,249,-6C304,-6,349,6,392,62L392,-24C392,-120,347,-191,246,-191C185,-191,159,-173,121,-138L87,-172C137,-217,174,-236,246,-236C371,-236,443,-148,443,-27M392,241C392,141,374,39,256,39C138,39,120,141,120,241C120,341,138,443,256,443C374,443,392,341,392,241 Z"
   id="glyph37" />
<glyph
   unicode="h"
   horiz-adv-x="559"
   d="M417,0L468,0L468,308C468,420,401,488,290,488C231,488,184,467,148,425L148,712L97,712L97,0L148,0L148,299C148,391,197,443,284,443C371,443,417,392,417,299L417,0 Z"
   id="glyph39" />
<glyph
   unicode="n"
   horiz-adv-x="559"
   d="M417,0L468,0L468,308C468,365,451,410,418,442C386,473,343,488,290,488C231,488,184,467,148,425L148,482L97,482L97,0L148,0L148,299C148,391,197,443,284,443C371,443,417,392,417,299L417,0 Z"
   id="glyph41" />
<glyph
   unicode="r"
   horiz-adv-x="409"
   d="M368,405L405,442C370,477,336,488,289,488C232,488,176,463,148,418L148,482L97,482L97,0L148,0L148,297C148,374,194,443,277,443C317,443,339,434,368,405 Z"
   id="glyph43" />
<glyph
   unicode="t"
   horiz-adv-x="325"
   d="M225,0L269,0L269,45L234,45C183,45,160,74,160,125L160,444L269,444L269,482L160,482L160,636L109,636L109,482L43,482L43,444L109,444L109,126C109,53,149,0,225,0 Z"
   id="glyph45" />
<glyph
   unicode="v"
   horiz-adv-x="430"
   d="M240,0L416,482L360,482L215,60L70,482L14,482L190,0L240,0 Z"
   id="glyph47" />
<glyph
   unicode="è"
   horiz-adv-x="523"
   d="M120,230L455,230L455,253C455,401,383,488,262,488C141,488,69,397,69,241C69,80,141,-6,274,-6C354,-6,399,19,448,68L410,98C369,57,334,40,277,40C174,40,120,107,120,230M404,271L120,271C123,318,126,331,137,362C158,413,206,443,262,443C318,443,366,413,387,362C400,333,401,317,404,271M253,590L311,590L214,737L147,737L253,590 Z"
   id="glyph49" />
</font>
<font
   horiz-adv-x="0"
   id="font51"
   horiz-origin-x="0"
   horiz-origin-y="0"
   vert-origin-x="45"
   vert-origin-y="90"
   vert-adv-y="90"><font-face
   font-family="fnt0"
   units-per-em="1000"
   ascent="954"
   descent="-174"
   id="font-face53" />
<missing-glyph
   horiz-adv-x="0"
   id="missing-glyph55" />
<glyph
   unicode=" "
   horiz-adv-x="249"
   d="M0 0 Z"
   id="glyph57" />
<glyph
   unicode=","
   horiz-adv-x="264"
   d="M176,-65L176,88L88,88L88,-144L176,-65 Z"
   id="glyph59" />
<glyph
   unicode="-"
   horiz-adv-x="426"
   d="M350,236L350,303L76,303L76,236L350,236 Z"
   id="glyph61" />
<glyph
   unicode="."
   horiz-adv-x="270"
   d="M182,0L182,94L88,94L88,0L182,0 Z"
   id="glyph63" />
<glyph
   unicode=":"
   horiz-adv-x="297"
   d="M209,301L209,395L115,395L115,301L209,301M209,0L209,94L115,94L115,0L209,0 Z"
   id="glyph65" />
<glyph
   unicode="A"
   horiz-adv-x="611"
   d="M599,0L338,712L274,712L12,0L93,0L150,161L461,161L518,0L599,0M439,227L173,227L307,603L439,227 Z"
   id="glyph67" />
<glyph
   unicode="C"
   horiz-adv-x="637"
   d="M572,206L496,206C477,119,414,62,325,62C278,62,233,80,202,112C157,158,152,207,152,356C152,505,157,554,202,600C233,632,278,650,325,650C414,650,475,593,494,506L572,506C548,640,453,718,325,718C255,718,191,692,143,644C76,577,76,507,76,356C76,205,76,135,143,68C191,20,255,-6,325,-6C452,-6,549,72,572,206 Z"
   id="glyph69" />
<glyph
   unicode="E"
   horiz-adv-x="600"
   d="M545,0L545,68L179,68L179,325L491,325L491,393L179,393L179,644L545,644L545,712L103,712L103,0L545,0 Z"
   id="glyph71" />
<glyph
   unicode="F"
   horiz-adv-x="580"
   d="M545,644L545,712L103,712L103,0L179,0L179,314L491,314L491,382L179,382L179,644L545,644 Z"
   id="glyph73" />
<glyph
   unicode="G"
   horiz-adv-x="650"
   d="M576,260L576,373L325,373L325,306L500,306L500,252C500,197,489,158,460,123C427,83,377,62,325,62C278,62,233,80,202,112C157,158,152,207,152,356C152,505,157,553,202,599C233,631,278,650,325,650C414,650,478,595,498,505L574,505C553,630,461,718,325,718C254,718,191,692,143,644C76,577,76,507,76,356C76,205,76,135,143,68C191,20,255,-6,325,-6C398,-6,465,22,515,76C559,123,576,178,576,260 Z"
   id="glyph75" />
<glyph
   unicode="O"
   horiz-adv-x="650"
   d="M574,356C574,507,574,577,507,644C459,692,396,718,325,718C254,718,191,692,143,644C76,577,76,507,76,356C76,205,76,135,143,68C191,20,254,-6,325,-6C396,-6,459,20,507,68C574,135,574,205,574,356M498,356C498,207,493,159,448,113C417,81,372,62,325,62C278,62,233,81,202,113C157,159,152,207,152,356C152,505,157,553,202,599C233,631,278,650,325,650C372,650,417,631,448,599C493,553,498,505,498,356 Z"
   id="glyph77" />
<glyph
   unicode="P"
   horiz-adv-x="630"
   d="M588,503C588,631,498,712,368,712L103,712L103,0L179,0L179,293L368,293C498,293,588,375,588,503M512,503C512,409,450,361,361,361L179,361L179,644L361,644C450,644,512,597,512,503 Z"
   id="glyph79" />
<glyph
   unicode="R"
   horiz-adv-x="656"
   d="M601,0L432,323C524,342,587,410,587,514C587,637,500,712,376,712L103,712L103,0L179,0L179,316L350,316L512,0L601,0M511,513C511,426,452,383,369,383L179,383L179,644L369,644C452,644,511,600,511,513 Z"
   id="glyph81" />
<glyph
   unicode="S"
   horiz-adv-x="588"
   d="M532,196C532,255,511,304,472,337C442,363,409,377,342,387L264,399C227,405,190,419,168,438C146,457,136,485,136,520C136,599,191,652,286,652C361,652,408,631,452,591L501,640C440,695,380,718,289,718C148,718,61,638,61,517C61,460,79,416,115,384C146,357,190,339,246,330L329,317C381,309,399,303,422,283C445,263,456,231,456,194C456,111,392,62,288,62C208,62,153,81,94,140L42,88C109,21,179,-6,286,-6C434,-6,532,71,532,196 Z"
   id="glyph83" />
<glyph
   unicode="U"
   horiz-adv-x="683"
   d="M590,235L590,712L514,712L514,241C514,133,445,62,341,62C237,62,169,133,169,241L169,712L93,712L93,235C93,93,197,-6,341,-6C485,-6,590,93,590,235 Z"
   id="glyph85" />
<glyph
   unicode="a"
   horiz-adv-x="526"
   d="M441,0L441,334C441,441,376,498,244,498C164,498,114,482,70,425L119,380C148,421,180,436,243,436C333,436,369,400,369,328L369,281L221,281C111,281,51,225,51,139C51,100,64,63,88,39C119,7,159,-6,227,-6C293,-6,329,7,369,47L369,0L441,0M369,174C369,133,361,105,344,89C313,59,276,56,234,56C156,56,121,83,121,140C121,197,157,227,231,227L369,227L369,174 Z"
   id="glyph87" />
<glyph
   unicode="b"
   horiz-adv-x="545"
   d="M481,246C481,323,471,405,421,455C395,481,351,498,301,498C247,498,202,486,162,435L162,712L90,712L90,0L162,0L162,59C202,7,247,-6,301,-6C351,-6,395,11,421,37C471,87,481,169,481,246M409,246C409,150,393,58,286,58C179,58,162,150,162,246C162,342,179,434,286,434C393,434,409,342,409,246 Z"
   id="glyph89" />
<glyph
   unicode="c"
   horiz-adv-x="490"
   d="M443,67L394,114C357,73,328,58,281,58C233,58,193,77,167,114C144,146,135,184,135,246C135,308,144,346,167,378C193,415,233,434,281,434C328,434,357,420,394,379L443,425C392,480,349,498,281,498C157,498,63,414,63,246C63,78,157,-6,281,-6C349,-6,392,12,443,67 Z"
   id="glyph91" />
<glyph
   unicode="d"
   horiz-adv-x="545"
   d="M455,0L455,712L383,712L383,435C343,486,298,498,244,498C194,498,150,481,124,455C74,405,64,323,64,246C64,169,74,87,124,37C150,11,194,-6,244,-6C298,-6,344,7,384,59L384,0L455,0M383,246C383,150,367,58,260,58C153,58,136,150,136,246C136,342,153,434,260,434C367,434,383,342,383,246 Z"
   id="glyph93" />
<glyph
   unicode="e"
   horiz-adv-x="530"
   d="M467,227L467,260C467,406,392,498,265,498C140,498,63,405,63,246C63,72,148,-6,278,-6C362,-6,408,20,458,70L409,113C370,74,337,57,280,57C186,57,135,119,135,227L467,227M395,281L135,281C137,321,139,336,150,363C169,408,213,437,265,437C317,437,361,408,380,363C391,336,393,321,395,281 Z"
   id="glyph95" />
<glyph
   unicode="f"
   horiz-adv-x="314"
   d="M283,434L283,489L178,489L178,580C178,625,198,652,244,652L283,652L283,714L231,714C147,714,106,655,106,582L106,489L43,489L43,434L106,434L106,0L178,0L178,434L283,434 Z"
   id="glyph97" />
<glyph
   unicode="g"
   horiz-adv-x="543"
   d="M453,-15L453,492L382,492L382,434C342,486,298,498,244,498C194,498,150,481,124,455C75,406,64,330,64,250C64,170,75,94,124,45C150,19,193,1,243,1C296,1,341,14,381,65L381,-12C381,-96,341,-163,246,-163C189,-163,164,-146,128,-114L81,-160C133,-207,174,-226,248,-226C377,-226,453,-137,453,-15M381,250C381,158,366,66,259,66C152,66,136,158,136,250C136,342,152,434,259,434C366,434,381,342,381,250 Z"
   id="glyph99" />
<glyph
   unicode="i"
   horiz-adv-x="253"
   d="M162,0L162,492L90,492L90,0L162,0M167,632L167,713L86,713L86,632L167,632 Z"
   id="glyph101" />
<glyph
   unicode="l"
   horiz-adv-x="297"
   d="M265,0L265,62L226,62C176,62,160,86,160,134L160,712L88,712L88,131C88,56,127,0,213,0L265,0 Z"
   id="glyph103" />
<glyph
   unicode="m"
   horiz-adv-x="879"
   d="M794,0L794,315C794,372,776,418,741,452C711,481,667,498,614,498C545,498,490,470,452,416C422,470,369,498,301,498C246,498,197,478,162,438L162,492L90,492L90,0L162,0L162,303C162,389,211,434,285,434C359,434,406,390,406,303L406,0L478,0L478,311C478,389,529,434,601,434C675,434,722,390,722,303L722,0L794,0 Z"
   id="glyph105" />
<glyph
   unicode="n"
   horiz-adv-x="562"
   d="M477,0L477,315C477,372,461,418,426,452C396,482,353,498,300,498C245,498,197,478,162,438L162,492L90,492L90,0L162,0L162,303C162,389,210,434,284,434C358,434,405,390,405,303L405,0L477,0 Z"
   id="glyph107" />
<glyph
   unicode="o"
   horiz-adv-x="530"
   d="M466,246C466,322,456,391,406,442C372,476,325,498,265,498C205,498,158,476,124,442C74,391,64,322,64,246C64,170,74,101,124,50C158,16,205,-6,265,-6C325,-6,372,16,406,50C456,101,466,170,466,246M394,246C394,191,391,130,355,94C332,71,300,58,265,58C230,58,199,71,176,94C140,130,136,191,136,246C136,301,140,362,176,398C199,421,230,434,265,434C300,434,332,421,355,398C391,362,394,301,394,246 Z"
   id="glyph109" />
<glyph
   unicode="p"
   horiz-adv-x="545"
   d="M481,246C481,323,471,405,421,455C395,481,351,498,301,498C247,498,202,486,162,434L162,492L90,492L90,-220L162,-220L162,58C202,7,247,-6,301,-6C351,-6,395,11,421,37C471,87,481,169,481,246M409,246C409,150,393,58,286,58C179,58,162,150,162,246C162,342,179,434,286,434C393,434,409,342,409,246 Z"
   id="glyph111" />
<glyph
   unicode="r"
   horiz-adv-x="421"
   d="M418,452C383,487,347,498,300,498C243,498,189,473,162,432L162,492L90,492L90,0L162,0L162,302C162,377,208,434,280,434C318,434,338,425,365,398L418,452 Z"
   id="glyph113" />
<glyph
   unicode="s"
   horiz-adv-x="496"
   d="M445,144C445,236,386,269,300,277L221,284C159,289,135,314,135,356C135,406,173,437,245,437C296,437,341,425,376,398L423,445C379,481,316,498,246,498C141,498,65,444,65,354C65,273,116,230,212,222L293,215C350,210,375,186,375,143C375,85,325,56,244,56C183,56,130,72,91,113L43,65C97,13,162,-6,245,-6C364,-6,445,49,445,144 Z"
   id="glyph115" />
<glyph
   unicode="t"
   horiz-adv-x="332"
   d="M279,0L279,62L241,62C195,62,174,89,174,134L174,434L279,434L279,489L174,489L174,643L102,643L102,489L40,489L40,434L102,434L102,132C102,59,144,0,228,0L279,0 Z"
   id="glyph117" />
<glyph
   unicode="u"
   horiz-adv-x="562"
   d="M472,0L472,492L400,492L400,189C400,103,351,58,277,58C203,58,157,102,157,189L157,492L85,492L85,178C85,121,100,74,135,40C165,10,209,-6,262,-6C317,-6,366,15,401,55L401,0L472,0 Z"
   id="glyph119" />
<glyph
   unicode=" "
   horiz-adv-x="447"
   d="M436,492L358,492L223,97L89,492L11,492L191,0L255,0L436,492 Z"
   id="glyph121" />
<glyph
   unicode="é"
   horiz-adv-x="530"
   d="M467,227L467,260C467,406,392,498,265,498C140,498,63,405,63,246C63,72,148,-6,278,-6C362,-6,408,20,458,70L409,113C370,74,337,57,280,57C186,57,135,119,135,227L467,227M395,281L135,281C137,321,139,336,150,363C169,408,213,437,265,437C317,437,361,408,380,363C391,336,393,321,395,281M393,747L307,747L219,594L285,594L393,747 Z"
   id="glyph123" />
<glyph
   unicode="è"
   horiz-adv-x="530"
   d="M467,227L467,260C467,406,392,498,265,498C140,498,63,405,63,246C63,72,148,-6,278,-6C362,-6,408,20,458,70L409,113C370,74,337,57,280,57C186,57,135,119,135,227L467,227M395,281L135,281C137,321,139,336,150,363C169,408,213,437,265,437C317,437,361,408,380,363C391,336,393,321,395,281M317,594L229,747L143,747L251,594L317,594 Z"
   id="glyph125" />
<glyph
   unicode="®"
   horiz-adv-x="881"
   d="M802,356C802,556,640,718,440,718C240,718,78,556,78,356C78,156,240,-6,440,-6C640,-6,802,156,802,356M745,356C745,186,608,47,440,47C272,47,136,186,136,356C136,526,272,665,440,665C608,665,745,526,745,356M592,158L497,327C546,342,582,378,582,436C582,503,526,555,457,555L322,555L322,158L377,158L377,320L437,320L528,158L592,158M526,436C526,396,495,367,451,367L377,367L377,506L451,506C495,506,526,476,526,436 Z"
   id="glyph127" />
<glyph
   unicode="™"
   horiz-adv-x="839"
   d="M781,285L781,712L724,712L594,453L464,712L406,712L406,285L464,285L464,593L566,391L622,391L724,593L724,285L781,285M331,659L331,712L36,712L36,659L154,659L154,285L212,285L212,659L331,659 Z"
   id="glyph129" />
</font>
<font
   horiz-adv-x="0"
   id="font131"
   horiz-origin-x="0"
   horiz-origin-y="0"
   vert-origin-x="45"
   vert-origin-y="90"
   vert-adv-y="90"><font-face
   font-family="fnt2"
   units-per-em="1000"
   ascent="967"
   descent="-213"
   id="font-face133" />
<missing-glyph
   horiz-adv-x="0"
   id="missing-glyph135" />
<glyph
   unicode="@"
   horiz-adv-x="800"
   d="M518,256L614,544L561,544L536,479Q519,524,491,543Q463,563,430,563Q377,563,333,537Q289,512,258,470Q227,429,210,377Q193,326,193,274Q193,244,202,218Q211,192,228,172Q245,152,269,140Q294,129,325,129Q363,129,396,150Q429,171,452,195L454,195Q457,162,476,145Q495,128,521,128Q563,128,604,150Q646,173,679,212Q712,252,732,305Q753,358,753,418Q753,487,727,544Q701,601,655,642Q610,684,548,706Q486,729,414,729Q338,729,271,700Q204,672,154,622Q104,573,75,505Q47,438,47,360Q47,281,74,212Q102,144,151,93Q201,43,269,14Q337,-14,418,-14Q465,-14,510,-2Q556,10,596,33Q637,56,670,89Q704,122,727,163L676,163Q654,132,625,107Q596,83,562,66Q528,49,491,39Q455,30,418,30Q350,30,291,55Q233,80,190,123Q148,167,124,226Q100,285,100,353Q100,422,123,482Q146,543,188,587Q230,632,288,658Q346,684,416,684Q474,684,525,666Q577,648,616,614Q655,581,677,532Q700,483,700,421Q700,379,686,335Q672,291,649,255Q626,219,595,196Q564,173,531,173Q519,173,513,180Q508,187,507,198Q507,210,510,225Q513,240,518,256M426,510Q441,510,455,502Q469,494,480,481Q491,468,498,451Q505,435,505,417Q505,384,492,343Q479,302,456,266Q434,231,404,206Q374,182,339,182Q303,182,279,208Q256,234,256,279Q256,314,268,354Q280,395,302,429Q325,464,356,487Q388,510,426,510 Z"
   id="glyph137" />
</font>
<font
   horiz-adv-x="0"
   id="font139"
   horiz-origin-x="0"
   horiz-origin-y="0"
   vert-origin-x="45"
   vert-origin-y="90"
   vert-adv-y="90"><font-face
   font-family="fnt3"
   units-per-em="1000"
   ascent="706"
   descent="-193"
   id="font-face141" />
<missing-glyph
   horiz-adv-x="0"
   id="missing-glyph143" />
<glyph
   unicode=" "
   horiz-adv-x="292"
   d="M0 0 Z"
   id="glyph145" />
<glyph
   unicode="1"
   horiz-adv-x="562"
   d="M334,700L141,588L141,517L246,578L246,0L334,0L334,700 Z"
   id="glyph147" />
<glyph
   unicode="6"
   horiz-adv-x="562"
   d="M331,682C329,682,151,573,87,384C71,336,63,286,63,236C63,92,145,-12,288,-12C446,-12,514,114,514,218C514,335,430,430,313,430C243,430,198,396,178,381C206,456,253,516,294,557C317,581,385,644,460,682L331,682M290,362C357,362,421,316,421,216C421,121,367,54,285,54C201,54,155,125,155,208C155,297,205,362,290,362 Z"
   id="glyph149" />
<glyph
   unicode="8"
   horiz-adv-x="562"
   d="M381,363C395,369,417,378,437,397C468,425,485,467,485,512C485,616,402,695,282,695C170,695,78,619,78,513C78,409,158,373,180,363C156,355,103,338,70,273C58,249,50,221,50,189C50,87,135,-12,281,-12C441,-12,512,100,512,193C512,243,492,294,450,329C423,352,400,358,381,363M281,396C216,396,167,448,167,509C167,568,210,627,283,627C337,627,396,589,396,514C396,444,345,396,281,396M418,193C418,114,361,55,281,55C213,55,143,107,143,194C143,270,203,334,279,334C354,334,418,277,418,193 Z"
   id="glyph151" />
<glyph
   unicode="9"
   horiz-adv-x="562"
   d="M232,0C233,0,411,109,475,298C491,346,499,396,499,447C499,591,416,695,274,695C117,695,49,569,49,465C49,345,134,252,250,252C319,252,364,286,384,301C356,226,309,166,269,125C241,97,173,36,103,0L232,0M273,320C205,320,142,367,142,466C142,561,196,629,277,629C361,629,407,557,407,475C407,387,359,320,273,320 Z"
   id="glyph153" />
<glyph
   unicode="A"
   horiz-adv-x="646"
   d="M373,706L286,706L0,0L92,0L170,201L469,201L545,0L646,0L373,706M197,272L310,567C315,579,317,584,323,604C330,581,331,578,335,567L443,272L197,272 Z"
   id="glyph155" />
<glyph
   unicode="E"
   horiz-adv-x="500"
   d="M507,72L161,72L161,336L425,336L425,408L161,408L161,636L464,636L464,707L69,707L69,0L464,0L507,72 Z"
   id="glyph157" />
<glyph
   unicode="I"
   horiz-adv-x="229"
   d="M160,706L69,706L69,0L160,0L160,706 Z"
   id="glyph159" />
<glyph
   unicode="M"
   horiz-adv-x="917"
   d="M787,706L692,706L459,195L219,706L123,706L45,0L131,0L190,570L453,0L714,564L773,0L868,0L787,706 Z"
   id="glyph161" />
<glyph
   unicode="P"
   horiz-adv-x="521"
   d="M161,0L161,300L198,300C256,300,339,302,404,343C467,382,500,449,500,513C500,571,468,648,388,685C347,704,315,707,271,707L69,707L69,0L161,0M161,635L257,635C328,635,401,606,401,511C401,464,377,423,342,401C296,371,233,374,208,375L161,312L161,635 Z"
   id="glyph163" />
<glyph
   unicode="R"
   horiz-adv-x="583"
   d="M381,337C418,359,496,405,496,515C496,579,468,628,432,658C375,705,306,705,258,706L69,706L69,0L160,0L160,307C240,306,273,310,290,312L482,0L588,0L381,337M160,635L224,635C277,635,318,635,353,610C385,586,399,550,399,511C399,459,374,424,344,405C308,381,261,379,241,379C226,379,214,380,206,381L160,317L160,635 Z"
   id="glyph165" />
<glyph
   unicode="T"
   horiz-adv-x="542"
   d="M316,635L541,635L541,706L0,706L0,635L225,635L225,0L316,0L316,635 Z"
   id="glyph167" />
<glyph
   unicode="U"
   horiz-adv-x="708"
   d="M552,706L552,308C552,246,553,201,535,158C505,88,433,53,355,53C256,53,193,108,172,167C159,207,159,264,159,308L159,706L65,706L65,269C65,195,72,115,141,53C198,2,275,-18,354,-18C442,-18,547,10,604,97C640,151,644,203,644,258L644,706L552,706 Z"
   id="glyph169" />
<glyph
   unicode="Î"
   horiz-adv-x="229"
   d="M160,706L69,706L69,0L160,0L160,706M210,822L114,895L21,822L21,751L114,822L210,751L210,822 Z"
   id="glyph171" />
</font>
</defs>
</svg>
