<?xml version="1.0" encoding="UTF-8" standalone="no"?>
<!-- Generator: PDFTron PDF2SVG Converter (DEMO VERSION) -->

<svg
   xmlns:dc="http://purl.org/dc/elements/1.1/"
   xmlns:cc="http://creativecommons.org/ns#"
   xmlns:rdf="http://www.w3.org/1999/02/22-rdf-syntax-ns#"
   xmlns:svg="http://www.w3.org/2000/svg"
   xmlns="http://www.w3.org/2000/svg"
   xmlns:sodipodi="http://sodipodi.sourceforge.net/DTD/sodipodi-0.dtd"
   xmlns:inkscape="http://www.inkscape.org/namespaces/inkscape"
   id="svgRoot"
   viewBox="0 0 100 100"
   xml:space="preserve"
   version="1.1"
   inkscape:version="0.48.2 r9819"
   width="100%"
   height="100%"
   sodipodi:docname="exa_3.svg"><metadata
   id="metadata476"><rdf:RDF><cc:Work
       rdf:about=""><dc:format>image/svg+xml</dc:format><dc:type
         rdf:resource="http://purl.org/dc/dcmitype/StillImage" /><dc:title /></cc:Work></rdf:RDF></metadata><sodipodi:namedview
   pagecolor="#ffffff"
   bordercolor="#666666"
   borderopacity="1"
   objecttolerance="10"
   gridtolerance="10"
   guidetolerance="10"
   inkscape:pageopacity="0"
   inkscape:pageshadow="2"
   inkscape:window-width="1920"
   inkscape:window-height="1174"
   id="namedview474"
   showgrid="false"
   inkscape:zoom="2"
   inkscape:cx="315.78925"
   inkscape:cy="134.61036"
   inkscape:window-x="-4"
   inkscape:window-y="-4"
   inkscape:window-maximized="1"
   inkscape:current-layer="svgRoot" />
<defs
   id="defs3">
<font
   horiz-adv-x="0"
   id="font5"
   horiz-origin-x="0"
   horiz-origin-y="0"
   vert-origin-x="45"
   vert-origin-y="90"
   vert-adv-y="90"><font-face
   font-family="fnt0"
   units-per-em="1000"
   ascent="889"
   descent="-260"
   id="font-face7" />
<missing-glyph
   horiz-adv-x="0"
   id="missing-glyph9" />
<glyph
   unicode=" "
   horiz-adv-x="250"
   d="M0 0 Z"
   id="glyph11" />
<glyph
   unicode="0"
   horiz-adv-x="587"
   d="M297,677C114,677,33,540,33,332C33,116,116,-10,292,-10C471,-10,554,125,554,334C554,549,471,677,297,677M292,565C366,565,392,494,392,326C392,170,363,104,294,104C221,104,195,166,195,335C195,495,220,565,292,565 Z"
   id="glyph13" />
<glyph
   unicode="1"
   horiz-adv-x="587"
   d="M61,404C110,424,162,452,246,503L246,127L44,127L44,0L584,0L584,127L399,127L399,677L286,677C254,623,169,572,61,541L61,404 Z"
   id="glyph15" />
<glyph
   unicode="2"
   horiz-adv-x="587"
   d="M543,127L224,127C472,278,534,361,534,478C534,604,437,677,291,677C149,677,63,605,32,457L170,426C180,512,217,565,283,565C338,565,375,529,375,476C375,441,358,395,325,361C285,321,204,253,153,217L32,130L32,0L532,0L543,127 Z"
   id="glyph17" />
<glyph
   unicode="3"
   horiz-adv-x="587"
   d="M195,403L195,286L235,286C324,286,382,263,382,191C382,136,338,105,277,105C211,105,173,142,157,213L15,193C42,60,130,-10,276,-10C432,-10,541,49,541,185C541,325,413,345,407,346C418,348,531,374,531,498C531,604,459,677,293,677C167,677,68,613,38,499L176,477C193,537,235,565,290,565C351,565,378,530,378,483C378,439,330,403,244,403L195,403 Z"
   id="glyph19" />
<glyph
   unicode="4"
   horiz-adv-x="587"
   d="M470,667L292,667L23,271L23,154L314,154L314,0L470,0L470,154L564,154L564,281L470,281L470,667M150,281L321,546L321,281L150,281 Z"
   id="glyph21" />
<glyph
   unicode="5"
   horiz-adv-x="587"
   d="M501,540L518,667L93,667L67,309L185,278C185,278,229,325,306,325C381,325,401,272,401,214C401,141,356,105,293,105C234,105,198,142,182,201L36,179C69,54,158,-10,298,-10C457,-10,558,73,558,218C558,341,485,439,332,439C236,439,195,402,195,402L207,540L501,540 Z"
   id="glyph23" />
<glyph
   unicode="6"
   horiz-adv-x="587"
   d="M548,490C525,610,439,677,309,677C144,677,35,537,35,311C35,101,128,-10,301,-10C435,-10,547,54,547,215C547,329,479,417,331,417C268,417,223,394,191,347C198,497,235,565,316,565C370,565,399,530,412,459L548,490M297,312C367,312,394,265,394,205C394,139,350,104,291,104C235,104,195,145,195,203C195,266,239,312,297,312 Z"
   id="glyph25" />
<glyph
   unicode="7"
   horiz-adv-x="587"
   d="M535,667L69,667L58,540L396,540C263,414,153,170,159,0L338,0C337,22,336,39,336,49C336,223,419,415,535,548L535,667 Z"
   id="glyph27" />
<glyph
   unicode="9"
   horiz-adv-x="587"
   d="M38,160C66,46,149,-10,272,-10C479,-10,543,166,543,366C543,547,475,677,278,677C135,677,38,591,38,456C38,336,123,253,247,253C305,253,344,270,388,317C382,239,373,105,272,107C227,107,190,132,176,181L38,160M288,566C352,566,386,519,386,463C386,404,339,366,284,366C227,366,187,404,187,468C187,525,227,566,288,566 Z"
   id="glyph29" />
<glyph
   unicode="A"
   horiz-adv-x="608"
   d="M394,667L213,667L0,0L137,0L179,137L394,137L435,0L603,0L394,667M216,260L287,494L358,260L216,260 Z"
   id="glyph31" />
<glyph
   unicode="D"
   horiz-adv-x="648"
   d="M67,667L67,0L296,0C487,0,613,134,613,335C613,546,486,667,270,667L67,667M220,540L271,540C418,540,452,436,452,337C452,228,416,127,269,127L220,127L220,540 Z"
   id="glyph33" />
<glyph
   unicode="E"
   horiz-adv-x="570"
   d="M544,540L544,667L67,667L67,0L544,0L544,127L223,127L223,280L476,280L476,407L223,407L223,540L544,540 Z"
   id="glyph35" />
<glyph
   unicode="G"
   horiz-adv-x="642"
   d="M586,357L312,357L312,230L438,230C438,159,397,117,330,117C242,117,198,192,198,328C198,471,240,550,322,550C388,550,425,510,438,428L586,448C562,595,468,677,326,677C148,677,35,541,35,325C35,120,142,-10,310,-10C389,-10,435,12,492,77C505,41,507,35,515,0L586,0L586,357 Z"
   id="glyph37" />
<glyph
   unicode="I"
   horiz-adv-x="289"
   d="M223,667L67,667L67,0L223,0L223,667 Z"
   id="glyph39" />
<glyph
   unicode="P"
   horiz-adv-x="603"
   d="M223,248L336,248C429,248,470,259,512,295C558,334,584,394,584,462C584,524,561,575,517,614C470,654,427,667,330,667L67,667L67,0L223,0L223,248M223,375L223,540L322,540C389,540,421,515,421,458C421,402,389,375,322,375L223,375 Z"
   id="glyph41" />
<glyph
   unicode="S"
   horiz-adv-x="581"
   d="M545,513C503,622,414,677,281,677C138,677,38,596,38,470C38,360,109,320,255,276C337,251,392,237,392,183C392,133,347,117,286,117C210,117,172,148,154,212L10,180C36,54,151,-10,290,-10C477,-10,555,67,555,199C555,458,195,369,200,493C201,524,230,550,288,550C352,550,384,529,407,470L545,513 Z"
   id="glyph43" />
<glyph
   unicode="V"
   horiz-adv-x="555"
   d="M562,667L431,667L292,190L159,667L-7,667L193,0L361,0L562,667 Z"
   id="glyph45" />
<glyph
   unicode="X"
   horiz-adv-x="600"
   d="M574,667L428,667L315,464L207,667L25,667L208,354L2,0L150,0L284,242L418,0L598,0L392,357L574,667 Z"
   id="glyph47" />
</font>
<font
   horiz-adv-x="0"
   id="font49"
   horiz-origin-x="0"
   horiz-origin-y="0"
   vert-origin-x="45"
   vert-origin-y="90"
   vert-adv-y="90"><font-face
   font-family="fnt1"
   units-per-em="1000"
   ascent="874"
   descent="-250"
   id="font-face51" />
<missing-glyph
   horiz-adv-x="0"
   id="missing-glyph53" />
<glyph
   unicode=" "
   horiz-adv-x="250"
   d="M0 0 Z"
   id="glyph55" />
<glyph
   unicode="."
   horiz-adv-x="249"
   d="M179,109L70,109L70,0L179,0L179,109 Z"
   id="glyph57" />
<glyph
   unicode=":"
   horiz-adv-x="249"
   d="M179,110L70,110L70,0L179,0L179,110M179,493L70,493L70,384L179,384L179,493 Z"
   id="glyph59" />
<glyph
   unicode="C"
   horiz-adv-x="579"
   d="M485,224C467,114,409,55,317,55C206,55,129,145,129,331C129,515,202,612,318,612C400,612,455,567,481,451L559,466C530,610,444,680,319,680C151,680,41,543,42,330C43,96,151,-13,315,-13C462,-13,533,67,561,207L485,224 Z"
   id="glyph61" />
<glyph
   unicode="S"
   horiz-adv-x="569"
   d="M24,157C60,28,170,-13,284,-13C458,-13,526,73,526,166C526,284,470,325,354,364L246,401C173,426,147,455,147,513C147,580,203,612,284,612C364,612,429,574,447,500L524,522C493,632,406,680,285,680C150,680,60,618,60,513C60,383,146,347,217,323L324,287C398,262,439,234,439,168C439,94,374,55,284,55C204,55,129,85,97,190L24,157 Z"
   id="glyph63" />
<glyph
   unicode="a"
   horiz-adv-x="523"
   d="M463,0C456,25,452,56,452,96L452,310C452,457,402,506,257,506C132,506,66,460,46,375L117,363C130,422,177,446,252,446C345,446,378,417,378,345L378,305C347,307,332,307,313,307C190,307,33,279,33,131C33,35,103,-13,205,-13C289,-13,338,16,378,89C382,33,382,24,387,0L463,0M379,215C379,119,306,46,215,46C153,46,115,81,115,134C115,207,185,249,308,249C324,249,349,248,378,247L379,215 Z"
   id="glyph65" />
<glyph
   unicode="e"
   horiz-adv-x="520"
   d="M402,147C373,80,332,50,269,50C216,50,165,80,143,125C128,156,123,182,123,240L482,240C480,410,402,506,267,506C132,506,38,399,38,244C38,80,129,-13,264,-13C364,-13,441,41,473,132L402,147M127,297C136,391,189,447,268,447C347,447,396,390,398,297L127,297 Z"
   id="glyph67" />
<glyph
   unicode="f"
   horiz-adv-x="300"
   d="M281,493L161,493L161,536C161,599,192,619,235,619C272,619,310,612,310,612L310,674C310,674,276,681,236,681C141,681,90,628,90,529L90,493L3,493L3,433L90,433L90,0L161,0L161,433L281,433L281,493 Z"
   id="glyph69" />
<glyph
   unicode="h"
   horiz-adv-x="540"
   d="M464,0L464,299C464,381,459,406,434,442C406,484,359,507,305,507C237,507,194,477,154,402L154,667L77,667L77,0L154,0L154,266C154,370,211,443,292,443C329,443,364,421,377,388C385,368,387,350,387,299L387,0L464,0 Z"
   id="glyph71" />
<glyph
   unicode="i"
   horiz-adv-x="229"
   d="M153,493L76,493L76,0L153,0L153,493M156,680L73,680L73,595L156,595L156,680 Z"
   id="glyph73" />
<glyph
   unicode="n"
   horiz-adv-x="542"
   d="M466,0L466,300C466,422,436,506,307,506C239,506,190,480,148,402L148,493L77,493L77,0L154,0L154,271C154,368,214,440,294,440C370,440,389,397,389,317L389,0L466,0 Z"
   id="glyph75" />
<glyph
   unicode="r"
   horiz-adv-x="329"
   d="M154,0L154,261C154,366,227,441,320,433L320,506C210,506,176,459,144,378L144,493L77,493L77,0L154,0 Z"
   id="glyph77" />
<glyph
   unicode="u"
   horiz-adv-x="541"
   d="M465,0L465,493L388,493L388,215C388,124,327,50,251,50C189,50,154,96,154,178L154,493L77,493L77,178C77,59,138,-13,239,-13C308,-13,361,24,396,94L396,0L465,0 Z"
   id="glyph79" />
<glyph
   unicode="°"
   horiz-adv-x="500"
   d="M392,530C392,608,327,669,250,669C173,669,108,608,108,530C108,452,173,391,250,391C327,391,392,452,392,530M344,530C344,478,301,438,250,438C199,438,156,478,156,530C156,582,199,622,250,622C301,622,344,582,344,530 Z"
   id="glyph81" />
<glyph
   unicode="à"
   horiz-adv-x="523"
   d="M463,0C456,25,453,56,452,96L452,305C452,452,401,507,266,507C137,507,64,461,46,370L117,358C130,417,175,447,250,447C313,447,354,427,368,390C376,369,378,355,378,305C347,307,332,307,313,307C228,307,161,295,116,271C65,245,33,192,33,136C33,48,103,-13,205,-13C289,-13,338,16,378,89C382,33,382,24,387,0L463,0M379,215C379,119,310,46,219,46C157,46,115,81,115,134C115,207,185,249,308,249C324,249,349,248,378,247L379,215M123,662L326,570L346,609L153,721L123,662 Z"
   id="glyph83" />
<glyph
   unicode="é"
   horiz-adv-x="520"
   d="M402,147C373,80,332,50,269,50C216,50,165,80,143,125C128,156,123,182,123,240L482,240C480,410,402,506,267,506C132,506,38,399,38,244C38,90,129,-13,264,-13C364,-13,441,41,473,132L402,147M127,297C136,391,189,447,268,447C347,447,396,390,398,297L127,297M415,662L385,721L192,609L213,570L415,662 Z"
   id="glyph85" />
</font>
</defs>
</svg>
