<?xml version="1.0" encoding="UTF-8" standalone="no"?>
<!-- Generator: PDFTron PDF2SVG Converter (DEMO VERSION) -->

<svg
   xmlns:dc="http://purl.org/dc/elements/1.1/"
   xmlns:cc="http://creativecommons.org/ns#"
   xmlns:rdf="http://www.w3.org/1999/02/22-rdf-syntax-ns#"
   xmlns:svg="http://www.w3.org/2000/svg"
   xmlns="http://www.w3.org/2000/svg"
   xmlns:sodipodi="http://sodipodi.sourceforge.net/DTD/sodipodi-0.dtd"
   xmlns:inkscape="http://www.inkscape.org/namespaces/inkscape"
   id="svgRoot"
   viewBox="0 0 600 600"
   xml:space="preserve"
   version="1.1"
   inkscape:version="0.48.2 r9819"
   width="100%"
   height="100%"
   sodipodi:docname="nkm_v.svg"><metadata
   id="metadata1107"><rdf:RDF><cc:Work
       rdf:about=""><dc:format>image/svg+xml</dc:format><dc:type
         rdf:resource="http://purl.org/dc/dcmitype/StillImage" /><dc:title></dc:title></cc:Work></rdf:RDF></metadata><sodipodi:namedview
   pagecolor="#ffffff"
   bordercolor="#666666"
   borderopacity="1"
   objecttolerance="10"
   gridtolerance="10"
   guidetolerance="10"
   inkscape:pageopacity="0"
   inkscape:pageshadow="2"
   inkscape:window-width="1335"
   inkscape:window-height="1018"
   id="namedview1105"
   showgrid="false"
   inkscape:zoom="0.2"
   inkscape:cx="-119.70861"
   inkscape:cy="141.5"
   inkscape:window-x="0"
   inkscape:window-y="0"
   inkscape:window-maximized="0"
   inkscape:current-layer="svgRoot" />
<defs
   id="defs3">
<font
   horiz-adv-x="0"
   id="font5"
   horiz-origin-x="0"
   horiz-origin-y="0"
   vert-origin-x="45"
   vert-origin-y="90"
   vert-adv-y="90"><font-face
   font-family="fnt0"
   units-per-em="1000"
   ascent="750"
   descent="-250"
   id="font-face7" />
<missing-glyph
   horiz-adv-x="0"
   id="missing-glyph9" />
<glyph
   unicode="A"
   horiz-adv-x="523"
   d="M472,84Q480,79,487,68Q495,57,495,40L495,0L310,0L310,36Q310,53,313,62Q317,71,321,76Q326,82,330,87Q334,93,334,102Q329,129,327,147Q325,165,323,175Q321,186,317,190Q314,195,307,195L299,195L215,195Q206,195,202,193Q198,191,197,182Q196,177,195,164Q195,151,193,137Q191,121,189,102Q189,91,192,85Q196,80,199,74Q203,68,206,60Q210,52,210,36L210,0L28,0L28,40Q28,55,33,63Q38,72,44,78Q50,84,56,90Q63,96,66,105L122,369Q132,418,142,465Q153,513,161,550Q169,588,174,611Q179,635,179,636L179,641Q179,649,174,654Q170,659,164,665Q159,672,154,682Q150,692,150,712L150,748Q203,748,236,748Q270,749,290,745Q310,741,319,731Q329,722,334,703Q335,699,340,671Q346,644,355,601Q364,559,375,505Q386,452,397,397Q423,268,457,105Q459,97,463,92Q467,88,472,84M299,289Q312,289,310,300L286,438Q281,464,277,489Q273,514,269,534Q266,554,264,566Q262,579,262,580L260,580Q260,579,257,559Q254,540,249,510Q244,480,238,444Q232,409,226,378Q221,347,217,325Q214,303,214,300Q213,293,215,291Q218,289,229,289L262,289L299,289 Z"
   id="glyph11" />
<glyph
   unicode="v"
   horiz-adv-x="401"
   d="M384,500L384,451Q384,432,379,421Q375,411,367,406Q362,403,360,396Q358,392,358,390L290,30Q281,0,258,0L154,0Q144,0,138,1Q133,2,129,6Q126,10,123,16Q121,22,118,33Q99,126,85,201Q79,233,73,264Q67,295,62,320Q57,345,54,361Q51,377,50,380Q48,391,43,394Q39,398,34,402Q27,407,22,418Q17,429,17,446L17,500L119,500Q135,500,140,490Q146,481,151,462Q151,460,154,443Q157,427,160,401Q164,375,169,342Q174,310,179,276Q190,197,205,97Q217,194,227,271Q231,304,235,336Q239,368,242,393Q246,419,248,435Q251,452,251,455Q256,483,266,491Q276,500,289,500L384,500 Z"
   id="glyph13" />
<glyph
   unicode="e"
   horiz-adv-x="400"
   d="M148,230L148,139Q148,119,163,107Q178,96,201,96Q224,96,239,108Q254,120,254,129L254,141Q254,164,266,180Q278,197,305,197L370,197L370,131Q370,98,357,73Q344,48,321,31Q299,14,268,5Q237,-4,201,-4Q164,-4,132,7Q101,18,78,38Q56,59,43,89Q30,119,30,157L30,345Q30,383,43,413Q56,443,78,463Q101,484,132,494Q164,505,201,505Q238,505,269,494Q300,484,322,463Q345,443,357,413Q370,383,370,345L370,280Q370,230,319,230L148,230M148,309L251,309L251,349Q251,367,245,378Q239,389,230,395Q222,402,213,404Q204,406,199,406Q194,406,185,403Q176,401,168,395Q160,389,154,378Q148,367,148,349L148,309 Z"
   id="glyph15" />
<glyph
   unicode="c"
   horiz-adv-x="391"
   d="M296,310Q269,310,255,325Q242,341,242,362Q242,384,226,392Q210,401,197,401Q191,401,182,399Q174,397,166,392Q159,388,154,380Q149,373,149,361L149,147Q149,131,153,121Q158,112,165,106Q173,101,181,99Q189,98,197,98Q212,98,228,106Q245,115,245,133L245,142Q245,165,258,181Q272,198,299,198L361,198L361,140Q361,108,349,81Q337,54,315,35Q293,16,263,5Q233,-5,197,-5Q123,-5,76,36Q30,78,30,155L30,343Q30,420,76,462Q123,504,197,504Q233,504,263,492Q294,480,315,460Q337,440,349,414Q361,389,361,362L361,310L296,310L296,310 Z"
   id="glyph17" />
<glyph
   unicode="d"
   horiz-adv-x="417"
   d="M377,101Q385,96,392,84Q400,73,400,54L400,0L302,0Q291,0,285,3Q280,6,276,10Q272,14,270,20Q253,7,232,1Q212,-4,182,-4Q108,-4,69,39Q30,83,30,160L30,342Q30,419,65,462Q101,506,176,505Q195,505,208,502Q222,499,231,495Q242,491,249,485L249,629Q249,643,238,650Q230,656,222,666Q215,677,215,695L215,748L330,748Q349,748,357,740Q366,732,366,701L366,122Q366,113,369,108Q372,104,377,101M249,377Q245,384,240,389Q229,400,214,403Q188,407,167,397Q147,387,147,359L147,144Q147,126,154,115Q161,105,171,100Q182,95,194,94Q206,93,216,95Q224,97,229,100Q235,103,240,106Q245,110,249,114L249,377 Z"
   id="glyph19" />
<glyph
   unicode="o"
   horiz-adv-x="403"
   d="M201,504Q237,504,268,492Q300,480,323,460Q347,441,360,415Q373,390,373,363L373,141Q373,109,360,82Q347,55,323,36Q300,17,268,6Q237,-4,201,-4Q164,-4,133,5Q102,14,79,32Q56,51,43,79Q30,108,30,146L30,354Q30,392,43,420Q56,449,79,467Q102,486,133,495Q164,504,201,504M201,95Q228,95,241,110Q255,126,255,143L255,354Q255,371,242,388Q229,405,201,405Q174,405,161,390Q148,375,148,358L148,142Q148,129,161,112Q174,95,201,95 Z"
   id="glyph21" />
<glyph
   unicode="n"
   horiz-adv-x="462"
   d="M419,93Q426,87,431,76Q436,65,436,46L436,0L337,0Q316,0,302,20Q289,41,289,67L289,328Q289,363,277,382Q265,401,230,401Q216,401,206,397Q197,394,191,389Q184,384,179,377L179,114Q179,104,182,100Q185,96,190,93Q198,87,205,76Q213,65,213,46L212,0L26,0L26,47Q26,66,33,77Q41,88,49,93Q54,97,56,100Q59,103,60,113L60,365Q60,386,56,392Q53,399,48,402Q40,408,33,418Q26,429,26,447L26,500L159,500Q167,500,170,496Q174,493,176,489Q178,485,179,479Q190,486,204,491Q216,496,233,500Q250,504,271,504Q308,504,334,491Q360,479,376,456Q393,434,400,402Q408,370,408,332L408,113Q408,104,411,100Q414,96,419,93 Z"
   id="glyph23" />
<glyph
   unicode="s"
   horiz-adv-x="395"
   d="M194,407Q175,407,163,397Q152,388,152,371L152,370Q152,354,168,342Q184,330,207,318Q231,306,258,292Q286,279,309,261Q333,244,349,221Q365,198,365,166L365,136Q365,101,352,75Q340,49,318,31Q296,14,266,5Q236,-3,201,-3Q165,-3,133,6Q102,16,79,34Q56,52,43,77Q30,103,30,136L30,194L83,194Q111,194,126,179Q142,165,142,137L142,136Q142,120,156,106Q170,93,194,93Q216,93,231,103Q246,114,246,136L246,148Q246,166,230,179Q215,193,192,205Q170,218,143,231Q116,244,93,261Q71,278,55,300Q40,323,40,355L40,386Q40,411,51,432Q63,454,84,470Q105,486,135,494Q165,503,202,503Q238,503,267,491Q296,480,316,461Q337,442,347,417Q358,392,358,365L358,317L310,317Q279,317,261,329Q243,341,243,362Q243,387,227,397Q211,407,194,407 Z"
   id="glyph25" />
<glyph
   unicode=" "
   horiz-adv-x="250"
   d="M0 0 Z"
   id="glyph27" />
<glyph
   unicode="a"
   horiz-adv-x="411"
   d="M369,103Q377,98,385,83Q394,69,394,50L394,1L296,1Q284,1,276,10Q269,19,267,27Q262,18,253,12Q244,7,232,3Q221,-1,209,-2Q197,-4,187,-4Q142,-4,111,8Q81,21,63,43Q45,65,37,94Q30,123,30,155L30,163Q30,203,46,228Q63,254,86,270Q110,286,135,295Q161,304,180,311Q200,319,212,326Q225,334,233,339Q241,345,245,351L245,376Q245,386,240,393Q235,400,227,403Q220,407,211,408Q203,410,196,410Q189,410,180,408Q172,406,164,402Q157,399,151,393Q146,387,146,378L146,379Q146,368,136,357Q126,346,99,346L38,346L38,372Q38,400,47,424Q56,449,75,466Q95,484,125,494Q155,504,198,504Q285,504,324,468Q364,433,364,372L364,126Q364,118,364,112Q365,106,369,103M245,256L231,249Q225,246,217,242Q209,238,200,234Q181,226,164,211Q147,196,147,162L147,138Q147,108,161,94Q175,81,198,81Q215,81,231,88Q238,92,245,96L245,256 Z"
   id="glyph29" />
<glyph
   unicode="h"
   horiz-adv-x="449"
   d="M416,96Q432,85,432,49L432,0L321,0Q278,0,278,62L278,335Q278,356,270,368Q263,380,252,386Q241,392,228,393Q215,394,205,392Q187,389,178,381Q170,373,170,374L170,117Q170,107,172,103Q175,99,180,96Q188,91,195,79Q203,68,203,49L202,0L17,0L17,50Q17,69,24,80Q32,91,40,97Q45,100,48,104Q51,108,51,118L51,629Q51,643,40,650Q32,656,24,666Q17,677,17,695L17,748L149,748Q170,748,170,724L170,483Q177,488,188,492Q197,496,212,499Q227,502,248,502Q325,502,360,460Q395,418,395,341L395,116Q396,107,403,103Q411,99,416,96 Z"
   id="glyph31" />
<glyph
   unicode="à"
   horiz-adv-x="447"
   d="M382,103Q390,98,398,83Q407,69,407,50L407,1L309,1Q297,1,289,10Q282,19,280,27Q275,18,266,12Q257,7,245,3Q234,-1,222,-2Q210,-4,200,-4Q155,-4,124,8Q94,21,76,43Q58,65,50,94Q43,123,43,155L43,163Q43,203,59,228Q76,254,99,270Q123,286,148,295Q174,304,193,311Q213,319,225,326Q238,334,246,339Q254,345,258,351L258,376Q258,386,253,393Q248,400,240,403Q233,407,224,408Q216,410,209,410Q202,410,193,408Q185,406,177,402Q170,399,164,393Q159,387,159,378L159,379Q159,368,149,357Q139,346,112,346L51,346L51,372Q51,400,60,424Q69,449,88,466Q108,484,138,494Q168,504,211,504Q298,504,337,468Q377,433,377,372L377,126Q377,118,377,112Q378,106,382,103M258,256L244,249Q238,246,230,242Q222,238,213,234Q194,226,177,211Q160,196,160,162L160,138Q160,108,174,94Q188,81,211,81Q228,81,244,88Q251,92,258,96L258,256M268,519L265,519L137,601Q134,604,137,604L174,652Q173,653,177,653L288,551Q289,552,289,551Q289,550,288,549L268,519 Z"
   id="glyph33" />
<glyph
   unicode="P"
   horiz-adv-x="414"
   d="M266,748Q303,748,328,731Q354,715,369,690Q384,665,390,637Q397,609,397,585L397,457Q397,382,356,340Q315,298,229,298L182,298Q168,298,168,285L168,109Q168,99,171,95Q174,91,178,88Q186,82,194,71Q202,60,202,43L202,0L17,0L17,43Q17,60,25,71Q33,82,41,88Q45,91,47,94Q50,97,51,104L51,645Q51,653,49,655Q48,658,44,660Q34,666,29,677Q24,689,24,710L24,748L266,748M280,574Q280,609,267,630Q254,651,223,651L184,651Q175,651,171,645Q168,640,168,634L168,408Q168,394,181,394L223,394Q254,394,267,415Q280,436,280,471L280,574 Z"
   id="glyph35" />
<glyph
   unicode="r"
   horiz-adv-x="334"
   d="M311,418Q311,404,303,400Q295,397,287,397Q268,398,248,394Q228,391,210,381Q193,372,182,356Q171,341,170,318L170,117Q170,107,172,103Q175,99,180,95Q188,90,195,79Q203,68,203,49L202,0L17,0L17,50Q17,69,24,80Q32,91,40,96Q45,100,48,104Q51,108,51,119L51,385Q51,390,47,394Q44,399,40,402Q32,407,24,418Q17,429,17,446L17,500L145,500Q170,500,170,478L170,459Q181,468,193,476Q204,483,217,490Q231,497,247,500Q258,502,270,502Q283,503,293,501Q303,499,307,495Q311,491,311,475L311,418L311,418 Z"
   id="glyph37" />
<glyph
   unicode="i"
   horiz-adv-x="220"
   d="M180,95Q188,90,195,79Q203,68,203,49L203,0L17,0L17,50Q17,69,24,80Q32,91,40,96Q44,99,46,102Q49,106,50,113L50,381Q50,392,39,399Q31,404,24,415Q17,426,17,443L17,500L151,500Q162,500,165,494Q169,489,169,481L169,117Q169,107,172,103Q175,99,180,95M110,575Q85,575,68,592Q51,609,51,634Q51,658,68,675Q85,693,110,693Q134,693,151,675Q169,658,169,634Q169,609,151,592Q134,575,110,575 Z"
   id="glyph39" />
<glyph
   unicode="N"
   horiz-adv-x="459"
   d="M442,748L442,706Q442,692,440,680Q438,668,427,659Q423,655,420,651Q418,648,418,639L418,23Q418,13,413,6Q408,0,397,0L339,0Q325,0,317,12Q310,24,304,40Q302,46,291,74Q280,102,265,140Q251,179,234,222Q217,266,203,303Q189,340,179,364Q170,389,170,390Q170,392,169,392Q168,393,168,388L168,109Q168,99,171,95Q174,91,178,87Q186,81,194,70Q202,59,202,42L202,0L17,0L17,42Q17,56,24,68Q31,80,42,89Q47,94,49,97Q51,101,51,109L51,647Q41,650,34,657Q27,663,22,674Q17,685,17,702L17,748L104,748Q116,748,130,742Q144,737,152,714Q153,712,163,687Q173,662,187,624Q202,586,219,541Q237,496,253,454Q269,413,281,380Q293,348,297,335Q298,332,299,334Q300,337,300,340L300,639Q300,649,297,653Q294,657,290,661Q282,667,274,678Q266,689,266,706L266,748L442,748 Z"
   id="glyph41" />
<glyph
   unicode="t"
   horiz-adv-x="268"
   d="M228,94Q234,94,238,93Q243,93,245,89Q248,86,249,78Q251,70,251,55L251,35Q251,6,232,1Q191,-8,160,-1Q130,5,109,21Q88,37,77,60Q67,83,67,107L67,401L17,401L17,445Q17,477,27,489Q38,501,67,501L67,541L67,608L67,602Q67,668,95,692Q124,717,186,717L186,608L186,541L186,501L237,501L237,467Q237,446,234,433Q232,420,226,413Q220,406,210,403Q200,401,186,401L186,140Q186,120,194,105Q202,91,228,94 Z"
   id="glyph43" />
<glyph
   unicode="l"
   horiz-adv-x="218"
   d="M179,95Q186,90,193,79Q201,68,201,49L201,0L17,0L17,50Q17,69,24,80Q32,91,40,96Q44,99,46,102Q49,106,50,113L50,632Q49,644,39,650Q31,656,24,666Q17,677,17,695L17,748L143,748Q168,748,168,724L168,117Q168,107,171,103Q174,99,179,95 Z"
   id="glyph45" />
<glyph
   unicode="K"
   horiz-adv-x="478"
   d="M426,96Q437,91,443,79Q450,68,450,45L450,0L368,0Q343,0,333,11Q323,23,315,39L192,306L176,281L176,110Q176,100,179,96Q182,92,186,88Q194,82,202,71Q210,60,210,43L210,0L28,0L28,43Q28,60,36,71Q44,82,52,88Q57,92,59,96Q62,100,62,110L62,639Q62,649,59,653Q57,657,52,660Q44,666,36,677Q28,688,28,705L28,711L28,744L28,748L210,748L210,705Q210,688,202,677Q194,666,186,660Q182,657,179,653Q176,649,176,639L176,476L305,712Q311,722,320,730Q328,737,339,742Q351,748,368,748L441,748L441,691Q441,669,434,661Q428,654,416,651Q405,648,398,642Q391,637,380,621Q378,618,372,608Q367,598,359,583Q352,569,342,551Q333,533,324,514Q302,470,274,416Q270,406,274,390Q274,388,280,375Q286,363,295,343Q305,324,317,299Q329,274,341,249Q369,189,405,115Q410,107,412,103Q415,100,426,96 Z"
   id="glyph47" />
<glyph
   unicode="u"
   horiz-adv-x="440"
   d="M405,96Q413,91,418,79Q423,68,423,49L423,0L343,0Q326,0,319,5Q313,11,308,21Q301,14,290,9Q279,5,266,2Q254,-1,241,-2Q229,-3,220,-3Q183,-3,151,6Q119,16,96,35Q73,54,59,82Q46,111,46,149L46,381Q46,389,43,393Q40,398,35,402Q27,407,22,418Q17,429,17,446L17,500L131,500Q163,500,163,463L163,149Q163,141,166,131Q169,121,175,112Q182,104,193,98Q204,92,221,92Q232,92,241,94Q251,96,259,99Q268,103,276,107L276,381Q276,389,272,393Q269,398,264,402Q247,414,247,446L247,500L362,500Q379,500,387,489Q395,478,395,467Q395,464,395,437Q395,410,395,371Q395,333,394,289Q394,245,394,207Q394,169,394,143Q394,117,394,116Q395,107,397,103Q400,99,405,96 Z"
   id="glyph49" />
<glyph
   unicode="k"
   horiz-adv-x="443"
   d="M378,106Q389,101,401,88Q413,75,413,53L413,0L390,0L328,0Q303,0,292,10Q282,21,271,44Q271,45,267,52Q263,59,257,70Q252,82,245,96Q238,110,231,125Q214,159,193,202L169,169L169,117Q169,107,172,103Q175,99,180,95Q188,90,193,79Q199,68,199,49L199,0L20,0L20,50Q20,69,26,80Q32,91,40,96Q45,100,48,104Q51,108,51,118L51,628Q51,636,47,641Q44,646,39,650Q31,655,24,666Q17,677,17,694L17,748L144,748Q156,748,162,743Q169,739,169,725L169,352Q170,352,184,371Q199,390,217,413Q237,440,264,475Q276,486,284,493Q293,500,306,500L370,500L393,500L393,443Q393,420,378,408Q363,397,352,393Q344,391,344,390Q344,389,336,381L272,299Q287,265,303,232Q317,204,331,174Q346,145,358,124Q366,110,378,106 Z"
   id="glyph51" />
<glyph
   unicode="-"
   horiz-adv-x="276"
   d="M233,259Q233,256,230,256L46,256Q43,256,43,259L43,343Q43,346,46,346L230,346Q233,346,233,343L233,259 Z"
   id="glyph53" />
<glyph
   unicode="M"
   horiz-adv-x="665"
   d="M648,703Q648,686,642,675Q637,664,631,659Q623,652,614,650L614,109Q614,99,617,95Q620,91,624,88Q632,82,640,71Q648,60,648,43L648,0L463,0L463,43Q463,60,471,71Q479,82,487,88Q492,91,494,95Q497,99,497,109L497,486Q497,487,496,488Q496,489,494,485Q463,418,438,364Q427,341,416,318Q406,296,397,277Q389,259,383,246Q377,233,376,230Q373,223,360,219Q347,216,332,216Q318,216,305,219Q292,222,289,229Q287,232,281,244Q276,257,267,275Q258,293,247,315Q237,337,227,360Q202,413,172,478Q171,480,169,480Q168,480,168,475L168,110Q168,100,171,96Q174,92,178,88Q186,82,194,71Q202,60,202,43L202,0L17,0L17,43Q17,60,25,71Q33,82,41,88Q45,91,47,95Q50,99,51,107L51,650Q41,652,34,659Q27,664,22,675Q17,686,17,703L17,748L153,748Q167,748,174,733L332,385L487,733Q491,742,502,745Q513,748,521,748L648,748L648,703L648,703 Z"
   id="glyph55" />
<glyph
   unicode="z"
   horiz-adv-x="375"
   d="M348,144L348,22Q348,14,341,7Q334,0,326,0L251,0L221,0L43,0Q35,0,31,5Q27,10,27,17L27,104Q27,111,28,113Q28,115,29,116Q84,190,127,250Q145,275,163,299Q181,324,194,343Q208,363,217,375Q226,388,226,390Q230,400,218,400L138,400Q132,400,130,394Q129,389,129,384L129,358L68,358Q51,358,41,368Q32,378,32,393L32,485Q32,500,47,500L90,500L328,500Q336,500,341,495Q346,491,346,483L346,384Q346,381,345,378Q345,376,345,374Q344,372,344,371L254,243Q237,219,220,196Q204,173,191,154Q179,136,170,124Q162,112,162,111Q160,106,163,102Q167,99,172,99L221,99L225,99L248,99Q248,113,256,128Q264,144,280,144L348,144 Z"
   id="glyph57" />
<glyph
   unicode=","
   horiz-adv-x="169"
   d="M141,100L141,18L141,-2Q141,-19,139,-30Q137,-42,131,-52Q126,-62,116,-72Q107,-83,92,-98Q83,-106,80,-104Q77,-103,70,-98Q63,-92,63,-88Q64,-85,74,-75Q89,-60,95,-45Q101,-31,99,-20Q97,-10,89,-3Q82,3,70,3Q47,3,37,6Q28,10,28,18L28,98Q28,107,43,110Q58,113,80,113Q103,113,122,109Q141,106,141,100 Z"
   id="glyph59" />
</font>
<font
   horiz-adv-x="0"
   id="font61"
   horiz-origin-x="0"
   horiz-origin-y="0"
   vert-origin-x="45"
   vert-origin-y="90"
   vert-adv-y="90"><font-face
   font-family="fnt1"
   units-per-em="1350"
   ascent="944"
   descent="-222"
   id="font-face63" />
<missing-glyph
   horiz-adv-x="0"
   id="missing-glyph65" />
<glyph
   unicode=" "
   horiz-adv-x="349"
   d="M0 0 Z"
   id="glyph67" />
<glyph
   unicode=","
   horiz-adv-x="349"
   d="M120,130L83,-129L169,-129L255,130L120,130 Z"
   id="glyph69" />
<glyph
   unicode="."
   horiz-adv-x="349"
   d="M240,130L110,130L110,0L240,0L240,130 Z"
   id="glyph71" />
<glyph
   unicode="P"
   horiz-adv-x="799"
   d="M635,717C635,617,570,540,440,540L250,540L250,895L440,895C570,895,635,817,635,717M760,718C760,878,640,1000,440,1000L130,1000L130,0L250,0L250,435L440,435C640,435,760,550,760,718 Z"
   id="glyph73" />
<glyph
   unicode="a"
   horiz-adv-x="758"
   d="M530,285C530,222,470,85,330,85C244,85,195,130,195,195C195,257,250,330,390,330L530,330L530,285M640,500C640,637,535,740,365,740C249,740,170,696,115,641L185,571C225,611,279,640,365,640C465,640,530,573,530,500L530,425L405,425C164,425,80,307,80,195C80,78,180,-15,305,-15C418,-15,502,42,530,120L530,0L640,0L640,500 Z"
   id="glyph75" />
<glyph
   unicode="c"
   horiz-adv-x="658"
   d="M550,149C510,109,456,85,400,85C270,85,175,200,175,360C175,520,270,635,400,635C456,635,510,611,550,571L620,641C561,700,476,735,400,735C210,735,60,580,60,360C60,140,210,-15,400,-15C476,-15,561,20,620,79L550,149 Z"
   id="glyph77" />
<glyph
   unicode="d"
   horiz-adv-x="834"
   d="M605,360C605,195,510,85,390,85C270,85,175,195,175,360C175,525,265,635,390,635C510,635,605,525,605,360M715,1000L605,1000L605,605C570,685,465,735,375,735C210,735,60,590,60,360C60,130,210,-15,375,-15C465,-15,570,35,605,110L605,0L715,0L715,1000 Z"
   id="glyph79" />
<glyph
   unicode="e"
   horiz-adv-x="739"
   d="M180,425C199,555,277,635,375,635C462,635,542,568,561,425L180,425M680,360C680,592,551,735,375,735C200,735,60,580,60,360C60,136,208,-15,410,-15C504,-15,581,15,645,79L575,149C531,105,468,85,410,85C278,85,188,178,176,325L680,325L680,360 Z"
   id="glyph81" />
<glyph
   unicode="f"
   horiz-adv-x="499"
   d="M450,1000C432,1005,390,1010,360,1010C235,1010,170,925,170,840L170,720L30,720L30,625L170,625L170,0L280,0L280,625L445,625L445,720L280,720L280,820C280,880,310,915,389,915C410,915,430,911,450,905L450,1000 Z"
   id="glyph83" />
<glyph
   unicode="g"
   horiz-adv-x="834"
   d="M605,370C605,215,510,105,390,105C265,105,175,215,175,370C175,520,270,635,390,635C510,635,605,520,605,370M715,720L605,720L605,605C570,675,485,735,375,735C210,735,60,590,60,370C60,150,210,5,375,5C485,5,570,65,605,140L605,50C605,-80,500,-165,370,-165C270,-165,205,-126,170,-91L100,-161C155,-216,240,-265,370,-265C590,-265,715,-125,715,50L715,720 Z"
   id="glyph85" />
<glyph
   unicode="i"
   horiz-adv-x="349"
   d="M230,720L120,720L120,0L230,0L230,720M235,1000L115,1000L115,880L235,880L235,1000 Z"
   id="glyph87" />
<glyph
   unicode="k"
   horiz-adv-x="719"
   d="M350,370L710,720L560,720L230,390L230,1000L120,1000L120,0L230,0L230,345L575,0L734,0L350,370 Z"
   id="glyph89" />
<glyph
   unicode="l"
   horiz-adv-x="349"
   d="M230,1000L120,1000L120,0L230,0L230,1000 Z"
   id="glyph91" />
<glyph
   unicode="m"
   horiz-adv-x="1219"
   d="M1100,460C1100,630,1016,735,870,735C769,735,693,680,647,584C628,644,570,735,435,735C332,735,266,682,230,600L230,720L120,720L120,0L230,0L230,360C230,539,324,635,415,635C511,635,555,575,555,460L555,0L665,0L665,360C665,539,759,635,850,635C946,635,990,575,990,460L990,0L1100,0L1100,460 Z"
   id="glyph93" />
<glyph
   unicode="n"
   horiz-adv-x="839"
   d="M720,460C720,630,620,735,460,735C342,735,258,678,230,600L230,720L120,720L120,0L230,0L230,360C230,540,320,635,445,635C545,635,610,575,610,460L610,0L720,0L720,460 Z"
   id="glyph95" />
<glyph
   unicode="o"
   horiz-adv-x="778"
   d="M605,360C605,195,510,85,390,85C270,85,175,195,175,360C175,525,270,635,390,635C515,635,605,525,605,360M720,360C720,590,570,735,390,735C210,735,60,590,60,360C60,130,210,-15,390,-15C570,-15,720,130,720,360 Z"
   id="glyph97" />
<glyph
   unicode="p"
   horiz-adv-x="834"
   d="M660,360C660,195,565,85,445,85C325,85,230,195,230,360C230,525,325,635,445,635C570,635,660,525,660,360M775,360C775,590,625,735,460,735C370,735,265,685,230,605L230,720L120,720L120,-250L230,-250L230,110C265,35,370,-15,460,-15C625,-15,775,130,775,360 Z"
   id="glyph99" />
<glyph
   unicode="q"
   horiz-adv-x="834"
   d="M605,360C605,195,510,85,390,85C270,85,175,195,175,360C175,525,265,635,390,635C510,635,605,525,605,360M715,720L605,720L605,605C570,685,465,735,375,735C210,735,60,590,60,360C60,130,210,-15,375,-15C465,-15,570,35,605,110L605,-250L715,-250L715,720 Z"
   id="glyph101" />
<glyph
   unicode="r"
   horiz-adv-x="499"
   d="M470,735C349,735,275,700,230,610L230,720L120,720L120,0L230,0L230,360C230,540,311,630,470,630L470,735 Z"
   id="glyph103" />
<glyph
   unicode="s"
   horiz-adv-x="604"
   d="M555,189C555,283,505,358,383,399L275,435C207,458,175,486,175,535C175,585,220,640,310,640C391,640,440,606,475,571L545,641C490,696,414,740,310,740C143,740,60,638,60,535C60,440,109,374,224,336L332,300C408,275,440,239,440,189C440,125,386,80,295,80C217,80,152,117,120,149L50,79C99,30,191,-20,295,-20C470,-20,555,79,555,189 Z"
   id="glyph105" />
<glyph
   unicode="t"
   horiz-adv-x="499"
   d="M450,95C430,89,410,85,389,85C310,85,280,120,280,180L280,625L445,625L445,720L280,720L280,925L170,925L170,720L30,720L30,625L170,625L170,160C170,75,235,-10,360,-10C390,-10,432,-5,450,0L450,95 Z"
   id="glyph107" />
<glyph
   unicode="u"
   horiz-adv-x="839"
   d="M720,720L610,720L610,360C610,180,520,85,395,85C295,85,230,145,230,260L230,720L120,720L120,260C120,90,220,-15,380,-15C498,-15,582,42,610,120L610,0L720,0L720,720 Z"
   id="glyph109" />
<glyph
   unicode="w"
   horiz-adv-x="1065"
   d="M913,720L754,129L590,720L476,720L312,129L153,720L30,720L242,0L382,0L533,544L684,0L824,0L1036,720L913,720 Z"
   id="glyph111" />
<glyph
   unicode="à"
   horiz-adv-x="758"
   d="M530,285C530,222,470,85,330,85C244,85,195,130,195,195C195,257,250,330,390,330L530,330L530,285M640,500C640,637,535,740,365,740C249,740,170,696,115,641L185,571C225,611,279,640,365,640C465,640,530,573,530,500L530,425L405,425C164,425,80,307,80,195C80,78,180,-15,305,-15C418,-15,502,42,530,120L530,0L640,0L640,500M355,1020L220,1020L384,790L470,790L355,1020 Z"
   id="glyph113" />
<glyph
   unicode="é"
   horiz-adv-x="739"
   d="M180,425C199,555,277,635,375,635C462,635,542,568,561,425L180,425M680,360C680,592,551,735,375,735C200,735,60,580,60,360C60,136,208,-15,410,-15C504,-15,581,15,645,79L575,149C531,105,468,85,410,85C278,85,188,178,176,325L680,325L680,360M405,1020L290,790L376,790L540,1020L405,1020 Z"
   id="glyph115" />
<glyph
   unicode="è"
   horiz-adv-x="739"
   d="M180,425C199,555,277,635,375,635C462,635,542,568,561,425L180,425M680,360C680,592,551,735,375,735C200,735,60,580,60,360C60,136,208,-15,410,-15C504,-15,581,15,645,79L575,149C531,105,468,85,410,85C278,85,188,178,176,325L680,325L680,360M350,1020L215,1020L379,790L465,790L350,1020 Z"
   id="glyph117" />
<glyph
   unicode="’"
   horiz-adv-x="349"
   d="M130,1000L93,741L179,741L265,1000L130,1000 Z"
   id="glyph119" />
</font>
<font
   horiz-adv-x="0"
   id="font121"
   horiz-origin-x="0"
   horiz-origin-y="0"
   vert-origin-x="45"
   vert-origin-y="90"
   vert-adv-y="90"><font-face
   font-family="fnt2"
   units-per-em="1350"
   ascent="963"
   descent="-222"
   id="font-face123" />
<missing-glyph
   horiz-adv-x="0"
   id="missing-glyph125" />
<glyph
   unicode=" "
   horiz-adv-x="349"
   d="M0 0 Z"
   id="glyph127" />
<glyph
   unicode=","
   horiz-adv-x="429"
   d="M110,235L63,-175L190,-175L360,235L110,235 Z"
   id="glyph129" />
<glyph
   unicode="-"
   horiz-adv-x="484"
   d="M425,455L60,455L60,295L425,295L425,455 Z"
   id="glyph131" />
<glyph
   unicode="."
   horiz-adv-x="429"
   d="M340,235L90,235L90,0L340,0L340,235 Z"
   id="glyph133" />
<glyph
   unicode="0"
   horiz-adv-x="919"
   d="M600,500C600,270,560,180,460,180C360,180,320,270,320,500C320,730,360,820,460,820C560,820,600,730,600,500M855,500C855,815,713,1015,460,1015C207,1015,65,815,65,500C65,185,207,-15,460,-15C713,-15,855,185,855,500 Z"
   id="glyph135" />
<glyph
   unicode="1"
   horiz-adv-x="629"
   d="M490,1000L270,1000C225,955,120,890,35,878L35,670C125,682,215,725,250,760L250,0L490,0L490,1000 Z"
   id="glyph137" />
<glyph
   unicode="2"
   horiz-adv-x="810"
   d="M764,210L420,210C643,401,733,560,733,730C733,904,597,1020,380,1020C246,1020,138,975,58,895L209,744C250,785,298,816,355,816C441,816,488,762,488,690C488,578,413,453,55,160L55,0L764,0L764,210 Z"
   id="glyph139" />
<glyph
   unicode="3"
   horiz-adv-x="769"
   d="M720,282C720,389,635,480,564,508C630,535,695,620,695,721C695,896,530,1020,330,1020C196,1020,100,965,30,895L181,744C220,783,274,816,330,816C409,816,460,770,460,714C460,658,420,612,320,612L240,612L240,401L320,401C400,401,465,355,465,292C465,230,400,185,320,185C258,185,203,213,160,256L9,105C77,37,180,-20,330,-20C550,-20,720,103,720,282 Z"
   id="glyph141" />
<glyph
   unicode="8"
   horiz-adv-x="878"
   d="M575,292C575,220,520,165,440,165C360,165,305,220,305,292C305,365,360,420,440,420C520,420,575,365,575,292M570,714C570,653,520,594,440,594C360,594,310,653,310,714C310,775,360,835,440,835C520,835,570,775,570,714M830,282C830,389,745,480,674,508C740,535,805,620,805,721C805,896,640,1020,440,1020C240,1020,75,896,75,721C75,620,140,535,206,508C135,480,50,389,50,282C50,103,220,-20,440,-20C660,-20,830,103,830,282 Z"
   id="glyph143" />
<glyph
   unicode="J"
   horiz-adv-x="769"
   d="M660,1000L400,1000L400,325C400,240,355,190,280,190C219,190,176,221,146,256L-5,105C71,29,150,-20,280,-20C515,-20,660,125,660,325L660,1000 Z"
   id="glyph145" />
<glyph
   unicode="a"
   horiz-adv-x="839"
   d="M500,305C500,228,458,150,376,150C313,150,290,191,290,225C290,267,329,305,400,305L500,305M740,445C740,610,617,740,395,740C269,740,176,705,90,641L223,508C263,540,314,560,360,560C442,560,500,504,500,435L400,435C170,435,50,335,50,200C50,85,151,-15,300,-15C402,-15,468,24,510,100L510,0L740,0L740,445 Z"
   id="glyph147" />
<glyph
   unicode="c"
   horiz-adv-x="733"
   d="M560,223C534,197,495,180,450,180C370,180,300,250,300,360C300,470,370,540,450,540C495,540,534,523,560,497L704,641C620,705,540,735,435,735C225,735,50,590,50,360C50,130,225,-15,435,-15C540,-15,620,15,704,79L560,223 Z"
   id="glyph149" />
<glyph
   unicode="d"
   horiz-adv-x="899"
   d="M560,360C560,235,500,180,430,180C360,180,300,235,300,360C300,485,360,540,430,540C500,540,560,485,560,360M800,1000L560,1000L560,640C525,695,440,735,370,735C200,735,50,590,50,360C50,130,200,-15,370,-15C454,-15,545,39,570,98L570,0L800,0L800,1000 Z"
   id="glyph151" />
<glyph
   unicode="e"
   horiz-adv-x="799"
   d="M308,450C324,527,362,565,420,565C484,565,515,524,531,450L308,450M770,360C770,594,633,735,415,735C195,735,50,590,50,360C50,130,220,-15,445,-15C550,-15,640,15,724,79L590,213C564,187,520,165,465,165C390,165,326,213,306,300L770,300L770,360 Z"
   id="glyph153" />
<glyph
   unicode="i"
   horiz-adv-x="438"
   d="M340,720L100,720L100,0L340,0L340,720M340,1000L100,1000L100,780L340,780L340,1000 Z"
   id="glyph155" />
<glyph
   unicode="l"
   horiz-adv-x="438"
   d="M340,1000L100,1000L100,0L340,0L340,1000 Z"
   id="glyph157" />
<glyph
   unicode="m"
   horiz-adv-x="1318"
   d="M1220,445C1220,618,1110,735,960,735C854,735,786,679,746,595C703,680,626,735,520,735C426,735,362,692,330,614L330,720L100,720L100,0L340,0L340,375C340,482,389,540,440,540C501,540,540,495,540,390L540,0L780,0L780,375C780,482,829,540,880,540C941,540,980,495,980,390L980,0L1220,0L1220,445 Z"
   id="glyph159" />
<glyph
   unicode="n"
   horiz-adv-x="919"
   d="M820,440C820,622,703,735,550,735C445,735,366,687,330,618L330,720L100,720L100,0L340,0L340,360C340,492,395,540,465,540C540,540,580,495,580,390L580,0L820,0L820,440 Z"
   id="glyph161" />
<glyph
   unicode="o"
   horiz-adv-x="839"
   d="M540,360C540,235,490,180,420,180C350,180,300,235,300,360C300,485,350,540,420,540C490,540,540,485,540,360M790,360C790,590,640,735,420,735C200,735,50,590,50,360C50,130,200,-15,420,-15C640,-15,790,130,790,360 Z"
   id="glyph163" />
<glyph
   unicode="p"
   horiz-adv-x="899"
   d="M600,360C600,235,540,180,470,180C400,180,340,235,340,360C340,485,400,540,470,540C540,540,600,485,600,360M850,360C850,590,700,735,530,735C446,735,355,681,330,622L330,720L100,720L100,-250L340,-250L340,80C375,25,460,-15,530,-15C700,-15,850,130,850,360 Z"
   id="glyph165" />
<glyph
   unicode="q"
   horiz-adv-x="899"
   d="M560,360C560,235,500,180,430,180C360,180,300,235,300,360C300,485,360,540,430,540C500,540,560,485,560,360M800,720L570,720L570,622C545,681,454,735,370,735C200,735,50,590,50,360C50,130,200,-15,370,-15C440,-15,525,25,560,80L560,-250L800,-250L800,720 Z"
   id="glyph167" />
<glyph
   unicode="r"
   horiz-adv-x="599"
   d="M585,735C432,735,359,678,330,610L330,720L100,720L100,0L340,0L340,355C340,470,393,535,480,535C511,535,558,528,585,520L585,735 Z"
   id="glyph169" />
<glyph
   unicode="s"
   horiz-adv-x="639"
   d="M602,641C541,702,456,740,346,740C167,740,56,623,56,515C56,268,372,310,372,205C372,182,344,160,285,160C233,160,187,185,159,213L25,79C86,19,179,-20,285,-20C505,-20,601,102,601,213C601,470,286,440,286,515C286,534,308,560,353,560C395,560,437,538,469,507L602,641 Z"
   id="glyph171" />
<glyph
   unicode="t"
   horiz-adv-x="599"
   d="M575,195C548,183,509,175,479,175C419,175,395,202,395,250L395,535L565,535L565,720L395,720L395,925L155,925L155,720L20,720L20,535L155,535L155,220C155,90,255,-10,410,-10C482,-10,527,-2,575,10L575,195 Z"
   id="glyph173" />
<glyph
   unicode="u"
   horiz-adv-x="919"
   d="M820,720L580,720L580,360C580,228,525,180,455,180C380,180,340,225,340,330L340,720L100,720L100,280C100,98,217,-15,370,-15C475,-15,554,33,590,102L590,0L820,0L820,720 Z"
   id="glyph175" />
<glyph
   unicode="v"
   horiz-adv-x="793"
   d="M544,720L394,211L250,720L-10,720L270,0L524,0L804,720L544,720 Z"
   id="glyph177" />
<glyph
   unicode="x"
   horiz-adv-x="758"
   d="M531,367L750,720L472,720L380,509L288,720L10,720L229,367L0,0L278,0L380,234L482,0L760,0L531,367 Z"
   id="glyph179" />
<glyph
   unicode="z"
   horiz-adv-x="658"
   d="M620,186L330,186L610,555L610,720L50,720L50,535L320,535L40,161L40,0L620,0L620,186 Z"
   id="glyph181" />
<glyph
   unicode="’"
   horiz-adv-x="429"
   d="M145,1000L98,590L225,590L395,1000L145,1000 Z"
   id="glyph183" />
</font>
<font
   horiz-adv-x="0"
   id="font185"
   horiz-origin-x="0"
   horiz-origin-y="0"
   vert-origin-x="45"
   vert-origin-y="90"
   vert-adv-y="90"><font-face
   font-family="fnt3"
   units-per-em="1350"
   ascent="963"
   descent="-222"
   id="font-face187" />
<missing-glyph
   horiz-adv-x="0"
   id="missing-glyph189" />
<glyph
   unicode="."
   horiz-adv-x="429"
   d="M314,235L64,235L14,0L264,0L314,235 Z"
   id="glyph191" />
<glyph
   unicode="a"
   horiz-adv-x="839"
   d="M489,305C472,228,414,150,332,150C269,150,255,191,262,225C271,267,318,305,389,305L489,305M759,445C794,610,698,740,476,740C350,740,250,705,150,641L255,508C302,540,357,560,403,560C485,560,531,504,516,435L416,435C186,435,45,335,17,200C-8,85,72,-15,221,-15C323,-15,397,24,455,100L434,0L664,0L759,445 Z"
   id="glyph193" />
<glyph
   unicode="e"
   horiz-adv-x="799"
   d="M328,450C360,527,406,565,464,565C528,565,550,524,551,450L328,450M771,360C820,594,713,735,495,735C275,735,99,590,51,360C2,130,141,-15,366,-15C471,-15,567,15,665,79L559,213C528,187,479,165,424,165C349,165,295,213,294,300L758,300L771,360 Z"
   id="glyph195" />
<glyph
   unicode="f"
   horiz-adv-x="599"
   d="M709,990C664,1002,621,1010,549,1010C394,1010,272,910,245,780L232,720L97,720L58,535L193,535L79,0L319,0L433,535L603,535L642,720L472,720L478,750C489,798,518,825,578,825C608,825,646,817,670,805L709,990 Z"
   id="glyph197" />
<glyph
   unicode="i"
   horiz-adv-x="438"
   d="M417,720L177,720L24,0L264,0L417,720M477,1000L237,1000L190,780L430,780L477,1000 Z"
   id="glyph199" />
<glyph
   unicode="m"
   horiz-adv-x="1318"
   d="M1239,445C1275,618,1190,735,1040,735C934,735,854,679,796,595C772,680,706,735,600,735C506,735,433,692,385,614L407,720L177,720L24,0L264,0L344,375C366,482,428,540,479,540C540,540,569,495,547,390L464,0L704,0L784,375C806,482,868,540,919,540C980,540,1009,495,987,390L904,0L1144,0L1239,445 Z"
   id="glyph201" />
<glyph
   unicode="p"
   horiz-adv-x="899"
   d="M601,360C574,235,502,180,432,180C362,180,314,235,341,360C367,485,439,540,509,540C579,540,627,485,601,360M851,360C899,590,780,735,610,735C526,735,424,681,386,622L407,720L177,720L-29,-250L211,-250L281,80C304,25,381,-15,451,-15C621,-15,802,130,851,360 Z"
   id="glyph203" />
<glyph
   unicode="r"
   horiz-adv-x="599"
   d="M665,735C512,735,427,678,384,610L407,720L177,720L24,0L264,0L339,355C364,470,431,535,518,535C549,535,594,528,620,520L665,735 Z"
   id="glyph205" />
<glyph
   unicode="s"
   horiz-adv-x="639"
   d="M662,641C614,702,537,740,427,740C248,740,112,623,89,515C37,268,362,310,340,205C335,182,302,160,243,160C191,160,150,185,128,213L-34,79C14,19,99,-20,205,-20C425,-20,547,102,570,213C625,470,304,440,319,515C324,534,351,560,396,560C438,560,475,538,501,507L662,641 Z"
   id="glyph207" />
<glyph
   unicode="w"
   horiz-adv-x="1127"
   d="M970,720L768,220L760,720L522,720L302,220L312,720L67,720L119,0L374,0L594,500L602,0L857,0L1215,720L970,720 Z"
   id="glyph209" />
</font>
<font
   horiz-adv-x="0"
   id="font211"
   horiz-origin-x="0"
   horiz-origin-y="0"
   vert-origin-x="45"
   vert-origin-y="90"
   vert-adv-y="90"><font-face
   font-family="fnt4"
   units-per-em="1000"
   ascent="989"
   descent="-360"
   id="font-face213" />
<missing-glyph
   horiz-adv-x="0"
   id="missing-glyph215" />
<glyph
   unicode=" "
   horiz-adv-x="227"
   d="M0 0 Z"
   id="glyph217" />
<glyph
   unicode="."
   horiz-adv-x="228"
   d="M114,-12C146,-12,170,11,170,46C170,78,146,103,114,103C82,103,58,78,58,46C58,11,82,-12,114,-12 Z"
   id="glyph219" />
<glyph
   unicode="/"
   horiz-adv-x="331"
   d="M298,665L242,665L25,-44L81,-44L298,665 Z"
   id="glyph221" />
<glyph
   unicode="0"
   horiz-adv-x="480"
   d="M240,635C90,635,35,457,35,311C35,153,89,-12,240,-12C390,-12,443,166,443,312C443,466,390,635,240,635M239,602C329,602,354,454,354,312C354,172,330,22,240,22C153,22,124,173,124,313C124,452,148,602,239,602 Z"
   id="glyph223" />
<glyph
   unicode="1"
   horiz-adv-x="480"
   d="M384,0L384,27C293,34,287,42,287,114L287,635C232,613,173,594,109,583L109,560L157,558C201,556,205,551,205,499L205,114C205,42,200,34,109,27L109,0L384,0 Z"
   id="glyph225" />
<glyph
   unicode="2"
   horiz-adv-x="480"
   d="M412,140C382,77,369,73,315,73L128,73L270,222C362,320,402,379,402,466C402,571,322,635,234,635C176,635,129,609,99,576L42,495L64,475C90,514,132,568,200,568C274,568,318,519,318,435C318,349,255,267,193,193C143,135,87,78,31,23L31,0L405,0C417,45,427,89,440,131L412,140 Z"
   id="glyph227" />
<glyph
   unicode="3"
   horiz-adv-x="480"
   d="M85,496C110,533,150,575,205,575C258,575,300,543,300,481C300,407,232,368,140,339L147,310C163,315,187,321,211,321C268,321,338,284,338,192C338,93,288,40,217,40C160,40,119,68,93,91C85,98,77,97,69,91C60,84,47,71,46,58C44,46,48,35,62,22C75,10,116,-12,162,-12C234,-12,424,62,424,224C424,297,373,359,285,376L285,378C314,398,338,416,353,432C372,451,384,474,384,503C384,579,325,635,235,635C182,635,136,610,108,579L64,516L85,496 Z"
   id="glyph229" />
<glyph
   unicode="4"
   horiz-adv-x="480"
   d="M456,178L456,225L360,225L360,632L320,632C217,496,115,348,20,206L20,178L280,178L280,106C280,40,276,34,189,27L189,0L445,0L445,27C364,34,360,39,360,106L360,178L456,178M280,225L83,225C149,336,214,431,278,520L280,520L280,225 Z"
   id="glyph231" />
<glyph
   unicode="5"
   horiz-adv-x="480"
   d="M152,550L385,550L411,615L405,623L120,623L81,318C104,327,142,338,184,338C293,338,347,275,347,187C347,112,305,39,220,39C159,39,118,71,97,90C87,98,79,97,70,90C59,80,50,67,49,57C47,45,52,37,65,23C80,9,122,-12,168,-12C221,-11,288,15,342,59C403,109,431,166,431,226C431,308,366,395,238,395C211,395,164,379,126,365L152,550 Z"
   id="glyph233" />
<glyph
   unicode="7"
   horiz-adv-x="480"
   d="M447,623L65,623C61,580,56,530,47,475L76,475C100,541,106,550,172,550L388,550C309,376,196,169,91,-1L98,-12L172,-2C268,204,361,408,455,611L447,623 Z"
   id="glyph235" />
<glyph
   unicode=":"
   horiz-adv-x="228"
   d="M114,411C82,411,59,388,59,355C59,321,82,297,114,297C146,297,170,321,170,355C170,388,146,411,114,411M115,-12C147,-12,171,11,171,46C171,78,147,103,115,103C83,103,59,78,59,46C59,11,83,-12,115,-12 Z"
   id="glyph237" />
<glyph
   unicode="P"
   horiz-adv-x="563"
   d="M46,650L46,622C120,617,128,613,128,525L128,125C128,42,120,34,40,28L40,0L311,0L311,28C221,34,212,39,212,124L212,281L286,262C297,261,316,261,331,262C428,275,526,338,526,467C526,533,500,579,461,608C421,638,364,650,293,650L46,650M212,559C212,587,215,599,223,606C230,613,251,618,279,618C361,618,430,572,430,464C430,337,350,302,285,302C252,302,225,309,212,314L212,559 Z"
   id="glyph239" />
<glyph
   unicode="a"
   horiz-adv-x="439"
   d="M433,39L423,65C413,59,399,54,387,54C370,54,352,69,352,114L352,300C352,352,342,393,307,422C285,440,255,449,225,449C168,438,103,399,75,379C56,365,43,354,43,339C43,316,69,296,87,296C101,296,112,303,116,319C124,350,133,372,146,385C156,397,171,405,191,405C241,405,275,364,275,292L275,274C253,256,180,229,120,209C65,190,39,159,39,110C39,47,88,-12,159,-12C189,-12,237,25,277,52C282,35,288,21,301,7C312,-3,333,-12,348,-12L433,39M275,84C256,66,221,49,195,48C164,48,124,73,124,125C124,161,146,180,185,198C206,208,254,229,275,240L275,84 Z"
   id="glyph241" />
<glyph
   unicode="c"
   horiz-adv-x="423"
   d="M391,111C345,68,312,56,269,56C213,56,118,102,118,241C118,346,176,401,242,401C277,401,312,388,342,360C351,352,356,349,361,349C372,349,394,371,394,392C394,403,391,412,378,423C362,436,329,449,289,449C250,449,190,433,138,393C71,341,38,274,38,197C38,90,112,-12,238,-12C297,-12,364,32,408,90L391,111 Z"
   id="glyph243" />
<glyph
   unicode="d"
   horiz-adv-x="528"
   d="M517,51L485,54C448,58,441,63,441,115L441,712C404,699,337,684,285,677L285,653C357,648,362,645,362,579L362,438C339,446,310,449,296,449C160,449,38,340,38,201C38,61,143,-12,223,-12C235,-12,262,-6,301,17L362,53L362,-12C420,9,495,22,517,26L517,51M362,85C338,67,302,51,266,51C202,51,129,109,129,228C129,373,213,412,259,412C297,412,338,396,362,361L362,85 Z"
   id="glyph245" />
<glyph
   unicode="e"
   horiz-adv-x="425"
   d="M379,106C343,72,305,56,265,56C195,56,117,112,116,248C235,252,360,262,377,265C395,269,400,277,400,297C400,375,333,449,250,449C198,449,144,422,103,376C62,331,37,270,37,201C37,88,109,-12,232,-12C263,-12,332,6,395,85L379,106M226,412C281,412,315,364,314,312C314,298,308,292,290,292C232,290,177,289,121,289C136,370,180,412,226,412 Z"
   id="glyph247" />
<glyph
   unicode="i"
   horiz-adv-x="268"
   d="M135,536C164,536,186,560,186,587C186,617,164,639,136,639C109,639,85,617,85,587C85,560,109,536,135,536M252,0L252,26C188,32,181,38,181,106L181,451C137,433,90,420,39,412L39,388C99,378,102,374,102,312L102,106C102,38,95,32,32,26L32,0L252,0 Z"
   id="glyph249" />
<glyph
   unicode="m"
   horiz-adv-x="819"
   d="M796,0L796,26C739,32,731,36,731,103L731,296C731,394,682,449,604,449C576,449,550,437,529,423C504,408,475,389,446,367C426,419,383,449,335,449C303,449,279,438,253,422C223,403,201,385,180,371L180,452C136,432,85,419,41,411L41,388C99,379,102,374,102,310L102,103C102,38,93,32,27,26L27,0L238,0L238,26C189,32,181,38,181,103L181,338C211,363,250,390,290,390C351,390,377,349,377,275L377,103C377,37,368,32,306,26L306,0L520,0L520,26C465,32,456,38,456,101L456,296C456,315,455,326,453,338C491,370,529,390,565,390C628,390,653,345,653,274L653,107C653,36,642,32,583,26L583,0L796,0 Z"
   id="glyph251" />
<glyph
   unicode="n"
   horiz-adv-x="547"
   d="M523,0L523,26C465,32,460,36,460,104L460,297C460,394,410,449,331,449C302,449,276,437,248,419C223,402,201,387,181,372L181,452C137,432,90,420,42,411L42,388C96,378,102,375,102,311L102,104C102,38,97,33,29,26L29,0L246,0L246,26C187,32,181,36,181,104L181,339C211,365,250,390,290,390C357,390,381,345,381,276L381,109C381,40,374,32,315,26L315,0L523,0 Z"
   id="glyph253" />
<glyph
   unicode="r"
   horiz-adv-x="371"
   d="M181,343L181,452C133,431,89,419,40,411L40,389C97,381,102,377,102,311L102,104C102,38,95,32,33,26L33,0L263,0L263,26C186,32,181,38,181,104L181,287C203,343,235,373,261,373C277,373,289,367,303,352C309,346,318,345,330,350C349,359,362,379,362,399C362,423,338,449,304,449C256,449,213,393,183,343L181,343 Z"
   id="glyph255" />
<glyph
   unicode="s"
   horiz-adv-x="367"
   d="M320,325C317,350,306,409,298,432C277,440,250,449,209,449C117,449,57,390,57,320C57,243,122,210,182,182C232,159,261,135,261,91C261,49,227,21,190,21C130,21,85,79,67,145L41,140C41,104,50,36,57,22C75,7,121,-12,172,-12C252,-12,337,35,337,126C337,195,286,231,211,262C166,281,126,304,126,349C126,388,153,418,191,418C240,418,275,378,294,319L320,325 Z"
   id="glyph257" />
</font>
</defs>
</svg>
