<?xml version="1.0" encoding="UTF-8" standalone="no"?>
<!-- Generator: PDFTron PDF2SVG Converter (DEMO VERSION) -->

<svg
   xmlns:dc="http://purl.org/dc/elements/1.1/"
   xmlns:cc="http://creativecommons.org/ns#"
   xmlns:rdf="http://www.w3.org/1999/02/22-rdf-syntax-ns#"
   xmlns:svg="http://www.w3.org/2000/svg"
   xmlns="http://www.w3.org/2000/svg"
   xmlns:sodipodi="http://sodipodi.sourceforge.net/DTD/sodipodi-0.dtd"
   xmlns:inkscape="http://www.inkscape.org/namespaces/inkscape"
   id="svgRoot"
   viewBox="0 0 600 600"
   xml:space="preserve"
   version="1.1"
   inkscape:version="0.48.2 r9819"
   width="100%"
   height="100%"
   sodipodi:docname="revista_1.svg"><metadata
   id="metadata1404"><rdf:RDF><cc:Work
       rdf:about=""><dc:format>image/svg+xml</dc:format><dc:type
         rdf:resource="http://purl.org/dc/dcmitype/StillImage" /><dc:title></dc:title></cc:Work></rdf:RDF></metadata><sodipodi:namedview
   pagecolor="#ffffff"
   bordercolor="#666666"
   borderopacity="1"
   objecttolerance="10"
   gridtolerance="10"
   guidetolerance="10"
   inkscape:pageopacity="0"
   inkscape:pageshadow="2"
   inkscape:window-width="1920"
   inkscape:window-height="1174"
   id="namedview1402"
   showgrid="false"
   inkscape:zoom="0.8"
   inkscape:cx="-233.35"
   inkscape:cy="283.35"
   inkscape:window-x="-4"
   inkscape:window-y="-4"
   inkscape:window-maximized="1"
   inkscape:current-layer="svgRoot" />
<defs
   id="defs3">
<font
   horiz-adv-x="0"
   id="font5"
   horiz-origin-x="0"
   horiz-origin-y="0"
   vert-origin-x="45"
   vert-origin-y="90"
   vert-adv-y="90"><font-face
   font-family="fnt1"
   units-per-em="1000"
   ascent="735"
   descent="-250"
   id="font-face7" />
<missing-glyph
   horiz-adv-x="0"
   id="missing-glyph9" />
<glyph
   unicode="."
   horiz-adv-x="287"
   d="M68,63C68,22,103,-12,145,-12C183,-12,218,24,218,63C218,103,183,138,144,138C103,138,68,104,68,63 Z"
   id="glyph11" />
<glyph
   unicode="a"
   horiz-adv-x="538"
   d="M344,73C344,46,347,17,357,0L498,0C482,35,477,82,477,122L477,326C477,482,364,512,272,512C203,512,142,495,80,444L123,381C158,411,198,432,255,432C298,432,339,403,346,357L228,322C112,289,43,235,43,140C43,48,108,-12,186,-12C232,-12,277,19,314,48L344,73M346,290C356,143,287,77,234,77C202,77,174,107,174,151C174,208,207,246,272,266L346,290 Z"
   id="glyph13" />
<glyph
   unicode="b"
   horiz-adv-x="623"
   d="M329,432C404,432,442,346,442,260C442,172,412,68,327,68C237,68,201,153,201,244C201,359,245,432,329,432M68,0L201,0L201,62C238,18,289,-12,351,-12C493,-12,583,118,583,261C583,371,520,512,362,512C302,512,238,482,203,431L201,431L201,735L68,735L68,0 Z"
   id="glyph15" />
<glyph
   unicode="c"
   horiz-adv-x="478"
   d="M431,103C398,85,364,78,333,78C238,78,181,155,181,255C181,371,257,422,332,422C362,422,392,413,421,401L453,478C412,502,363,512,323,512C146,512,40,388,40,248C40,146,108,-12,316,-12C361,-12,416,2,458,27L431,103 Z"
   id="glyph17" />
<glyph
   unicode="e"
   horiz-adv-x="547"
   d="M506,238C516,387,451,512,295,512C152,512,40,414,40,260C40,95,153,-12,304,-12C361,-12,432,4,500,44L462,114C429,91,377,74,328,74C245,74,179,144,182,238L506,238M184,310C183,377,217,438,293,438C359,438,386,386,381,310L184,310 Z"
   id="glyph19" />
<glyph
   unicode="l"
   horiz-adv-x="269"
   d="M201,0L201,735L68,735L68,0L201,0 Z"
   id="glyph21" />
<glyph
   unicode="r"
   horiz-adv-x="401"
   d="M200,500L68,500L68,0L201,0L201,247C201,355,246,392,292,392C319,392,333,386,355,375L405,467C377,496,345,512,315,512C274,512,245,472,229,451L202,412L200,412L200,500 Z"
   id="glyph23" />
<glyph
   unicode="s"
   horiz-adv-x="426"
   d="M382,466C346,498,292,512,237,512C139,512,63,453,63,374C63,312,102,274,159,235C207,201,259,175,259,128C259,86,225,66,187,66C151,66,108,90,78,114L36,45C83,12,134,-12,203,-12C313,-12,390,62,390,132C390,178,369,230,298,283C242,324,194,347,194,387C194,421,224,438,254,438C278,438,309,428,339,406L382,466 Z"
   id="glyph25" />
<glyph
   unicode="t"
   horiz-adv-x="389"
   d="M225,650L92,620L92,500L22,500L22,432L92,432L92,148C92,46,140,-12,250,-12C294,-12,342,-1,381,20L358,86C340,77,323,69,294,69C250,69,225,104,225,186L225,432L356,432L356,500L225,500L225,650 Z"
   id="glyph27" />
<glyph
   unicode="u"
   horiz-adv-x="591"
   d="M391,0L523,0L523,500L390,500L390,211C390,120,336,81,290,81C227,81,196,127,196,197L196,500L63,500L63,178C63,52,125,-12,232,-12C295,-12,344,15,391,62L391,0 Z"
   id="glyph29" />
<glyph
   unicode="v"
   horiz-adv-x="519"
   d="M299,0L517,489L403,510C357,395,311,279,266,140L264,140C222,279,178,395,135,510L2,486L206,0L299,0 Z"
   id="glyph31" />
</font>
<font
   horiz-adv-x="0"
   id="font33"
   horiz-origin-x="0"
   horiz-origin-y="0"
   vert-origin-x="45"
   vert-origin-y="90"
   vert-adv-y="90"><font-face
   font-family="fnt2"
   units-per-em="1000"
   ascent="832"
   descent="-350"
   id="font-face35" />
<missing-glyph
   horiz-adv-x="0"
   id="missing-glyph37" />
<glyph
   unicode=" "
   horiz-adv-x="322"
   d="M0 0 Z"
   id="glyph39" />
<glyph
   unicode="!"
   horiz-adv-x="243"
   d="M117,157C70,157,34,120,34,73C34,26,70,-10,117,-10C163,-10,199,26,199,73C199,120,163,157,117,157M154,253C160,345,194,640,202,721C205,759,226,794,226,823C226,863,182,893,128,893C64,893,18,862,18,819C18,802,34,765,39,731C53,631,75,341,81,253L154,253 Z"
   id="glyph41" />
<glyph
   unicode="1"
   horiz-adv-x="245"
   d="M3,654L10,614C43,614,59,600,59,571L59,0L208,0L208,718L3,654 Z"
   id="glyph43" />
<glyph
   unicode="2"
   horiz-adv-x="538"
   d="M151,549C191,589,230,609,263,609C318,609,361,571,361,448C361,386,325,312,251,227C226,199,149,125,17,0L527,0L527,89L216,89C425,265,510,368,510,482C510,577,477,695,313,695C231,695,155,665,102,583L151,549 Z"
   id="glyph45" />
<glyph
   unicode="3"
   horiz-adv-x="448"
   d="M56,550C99,587,138,607,174,607C232,607,278,552,278,489C278,422,235,373,131,345L131,273C160,283,176,287,185,287C248,287,299,216,299,142C299,42,207,-66,37,-119L69,-173C239,-144,427,40,427,184C427,253,392,311,320,346C376,386,415,451,415,521C415,624,330,695,219,695C138,695,62,665,8,583L56,550 Z"
   id="glyph47" />
<glyph
   unicode="A"
   horiz-adv-x="497"
   d="M217,639L282,250L154,250L217,639M176,846L16,0L101,0L138,184L295,184L330,0L480,0L318,846L176,846 Z"
   id="glyph49" />
<glyph
   unicode="c"
   horiz-adv-x="502"
   d="M294,695C121,695,18,573,18,339C18,129,112,-18,269,-18C366,-18,431,31,480,126L417,157C387,96,359,61,315,61C221,61,170,179,170,344C170,527,215,622,304,622C343,622,371,589,391,541L464,568C437,650,385,695,294,695 Z"
   id="glyph51" />
<glyph
   unicode="d"
   horiz-adv-x="519"
   d="M243,615C297,615,336,511,336,467L336,182C336,141,307,63,274,63C193,63,157,293,157,425C157,544,186,615,243,615M336,818L336,647C306,674,286,695,211,695C64,695,11,523,11,385C11,147,93,-18,209,-18C291,-18,333,11,360,57L375,0L485,0L485,864L336,818 Z"
   id="glyph53" />
<glyph
   unicode="e"
   horiz-adv-x="542"
   d="M189,442C194,534,232,618,309,618C390,618,398,497,402,442L189,442M307,695C139,693,23,518,23,318C23,128,123,-18,271,-18C375,-18,437,34,482,126L418,157C390,93,359,61,318,61C201,61,179,246,179,328L179,359L523,359C523,537,453,695,307,695 Z"
   id="glyph55" />
<glyph
   unicode="f"
   horiz-adv-x="369"
   d="M16,681L16,615L66,615L66,0L216,0L216,615L299,615L299,681L216,681C217,728,242,792,280,792C307,792,329,783,350,770L378,834C347,855,302,864,256,864C160,864,69,800,66,681L16,681 Z"
   id="glyph57" />
<glyph
   unicode="i"
   horiz-adv-x="217"
   d="M35,643L35,0L184,0L184,689L35,643M110,875C63,875,26,839,26,792C26,745,63,709,110,709C155,709,192,745,192,792C192,839,155,875,110,875 Z"
   id="glyph59" />
<glyph
   unicode="l"
   horiz-adv-x="217"
   d="M33,818L33,0L182,0L182,864L33,818 Z"
   id="glyph61" />
<glyph
   unicode="s"
   horiz-adv-x="474"
   d="M257,695C135,695,39,627,39,493C39,354,134,309,231,261C270,241,304,202,304,165C304,114,258,64,210,64C166,64,121,121,96,177L22,128C62,25,134,-18,219,-18C367,-18,454,70,454,197C454,261,417,336,353,373C280,414,186,431,186,529C186,573,224,613,269,613C302,613,334,582,366,535L431,589C392,663,335,695,257,695 Z"
   id="glyph63" />
<glyph
   unicode="¡"
   horiz-adv-x="243"
   d="M128,555C175,555,210,592,210,639C210,686,175,722,128,722C81,722,46,686,46,639C46,592,81,555,128,555M90,459C85,367,49,72,42,-9C39,-47,21,-82,18,-111C18,-151,63,-181,117,-181C181,-181,226,-150,226,-107C226,-90,210,-53,206,-19C192,81,163,371,163,459L90,459 Z"
   id="glyph65" />
<glyph
   unicode="á"
   horiz-adv-x="523"
   d="M167,189C167,237,205,296,280,319C296,324,310,329,323,337L323,139C311,90,281,54,249,54C184,54,167,89,167,189M120,536C154,582,190,614,224,614C282,614,323,574,323,510L323,462C311,421,283,401,240,393C94,367,19,288,19,187C19,73,71,-18,211,-18C298,-18,338,30,363,90C368,57,379,22,401,0L511,0C485,39,472,74,472,103L472,525C472,616,393,695,271,695C181,695,103,661,47,571L120,536M350,854C336,853,320,850,300,839L173,770L196,739L355,783C381,790,394,802,394,821C394,842,379,854,350,854 Z"
   id="glyph67" />
<glyph
   unicode="í"
   horiz-adv-x="235"
   d="M33,643L33,0L182,0L182,689L33,643M203,854C189,853,173,850,153,839L26,770L49,739L208,783C234,790,247,802,247,821C247,842,232,854,203,854 Z"
   id="glyph69" />
</font>
<font
   horiz-adv-x="0"
   id="font71"
   horiz-origin-x="0"
   horiz-origin-y="0"
   vert-origin-x="45"
   vert-origin-y="90"
   vert-adv-y="90"><font-face
   font-family="fnt3"
   units-per-em="1000"
   ascent="592"
   descent="-206"
   id="font-face73" />
<missing-glyph
   horiz-adv-x="0"
   id="missing-glyph75" />
<glyph
   unicode=" "
   horiz-adv-x="192"
   d="M0 0 Z"
   id="glyph77" />
<glyph
   unicode="("
   horiz-adv-x="268"
   d="M241,668C252,683,250,702,235,713C220,724,201,723,190,708C146,651,113,590,90,522C67,457,56,389,56,318C56,247,67,179,90,114C112,47,145,-15,190,-72C201,-87,220,-88,235,-77C250,-66,252,-47,241,-32C201,19,171,75,150,135C130,194,120,255,120,318C120,381,130,442,150,501C171,561,201,617,241,668 Z"
   id="glyph79" />
<glyph
   unicode=")"
   horiz-adv-x="269"
   d="M212,328C212,399,201,467,178,532C155,598,122,660,77,718C66,733,47,734,32,723C19,712,16,693,27,678C67,627,97,571,118,511C138,452,148,391,148,328C148,265,138,204,118,145C97,85,67,29,27,-22C16,-37,19,-56,32,-67C47,-78,66,-77,77,-62C121,-6,155,56,178,124C201,189,212,257,212,328 Z"
   id="glyph81" />
<glyph
   unicode="*"
   horiz-adv-x="416"
   d="M239,405L323,357C338,348,356,353,364,368C373,383,368,401,353,409L269,458L353,507C368,515,373,533,364,548C356,563,338,568,323,559L239,511L239,608C239,625,225,638,208,638C191,638,178,625,178,608L178,511L93,559C78,568,60,563,52,548C43,533,48,515,63,507L147,458L63,409C48,401,43,383,52,368C60,353,78,348,93,357L178,405L178,308C178,291,191,277,208,277C225,277,239,291,239,308L239,405 Z"
   id="glyph83" />
<glyph
   unicode="."
   horiz-adv-x="192"
   d="M54,38C54,15,73,-4,96,-4C119,-4,138,15,138,38C138,61,119,80,96,80C73,80,54,61,54,38 Z"
   id="glyph85" />
<glyph
   unicode="/"
   horiz-adv-x="416"
   d="M339,678C323,685,305,675,298,659L58,-1C51,-18,61,-35,77,-42C94,-49,111,-40,118,-23L358,637C365,654,356,671,339,678 Z"
   id="glyph87" />
<glyph
   unicode="0"
   horiz-adv-x="416"
   d="M208,-4C291,-4,360,64,360,148L360,488C360,572,291,640,208,640C124,640,56,572,56,488L56,148C56,64,124,-4,208,-4M208,576C256,576,296,536,296,488L296,148C296,99,256,60,208,60C159,60,120,99,120,148L120,488C120,536,159,576,208,576 Z"
   id="glyph89" />
<glyph
   unicode="1"
   horiz-adv-x="416"
   d="M134,465L200,531L200,28C200,9,213,-4,232,-4C249,-4,264,9,264,28L264,608C264,623,257,633,244,638C232,642,218,640,209,631L89,511C83,504,80,497,80,488C80,479,83,472,89,465C96,459,103,456,112,456C121,456,128,459,134,465 Z"
   id="glyph91" />
<glyph
   unicode="2"
   horiz-adv-x="416"
   d="M76,520C91,511,111,517,120,532C131,552,149,566,172,573C195,579,217,576,238,565C259,554,273,536,280,513C287,490,285,468,274,447L64,47C58,37,58,26,65,15C70,5,79,0,92,0L316,0C333,0,348,13,348,32C348,51,333,64,316,64L145,64C164,100,210,188,252,268C276,315,302,364,330,417C349,454,353,493,341,532C330,571,304,602,269,621C234,640,194,645,155,634C115,624,85,601,64,564C55,549,61,529,76,520 Z"
   id="glyph93" />
<glyph
   unicode="3"
   horiz-adv-x="416"
   d="M205,63C166,52,126,69,106,104C97,119,77,124,62,116C47,107,41,87,50,72C84,12,155,-17,221,1C289,20,334,79,334,148L334,208C334,257,311,300,275,328C311,356,334,399,334,448L334,488C334,557,289,616,221,635C154,654,85,623,50,564C41,549,47,529,62,520C77,511,97,517,106,532C126,567,166,584,205,573C244,562,270,528,270,488L270,448C270,399,230,360,182,360C163,360,150,347,150,328C150,309,163,296,182,296C230,296,270,256,270,208L270,148C270,108,244,74,205,63 Z"
   id="glyph95" />
<glyph
   unicode="5"
   horiz-adv-x="416"
   d="M95,287C110,283,124,289,131,302C151,337,191,354,230,343C269,332,295,298,295,258L295,148C295,108,269,74,230,63C191,52,151,69,131,104C122,119,102,124,87,116C72,107,67,87,75,72C109,12,180,-17,246,1C314,20,359,79,359,148L359,258C359,327,314,386,246,405C207,415,170,411,135,392L135,572L311,572C330,572,343,585,343,604C343,623,330,636,311,636L103,636C84,636,71,623,71,604L71,318C71,303,80,291,95,287 Z"
   id="glyph97" />
<glyph
   unicode="6"
   horiz-adv-x="416"
   d="M217,-4C301,-4,369,64,369,148L369,248C369,332,301,400,217,400C184,400,155,391,129,372L129,488C129,528,155,562,194,573C233,584,274,567,293,532C302,517,322,511,337,520C352,529,358,549,349,564C314,623,245,654,178,635C111,616,65,557,65,488L65,148C65,64,133,-4,217,-4M217,336C266,336,305,296,305,248L305,148C305,99,266,60,217,60C169,60,129,99,129,148L129,248C129,296,169,336,217,336 Z"
   id="glyph99" />
<glyph
   unicode="8"
   horiz-adv-x="416"
   d="M208,-4C292,-4,360,64,360,148L360,208C360,257,337,300,302,328C337,356,360,399,360,448L360,488C360,572,292,640,208,640C125,640,56,572,56,488L56,448C56,399,79,356,115,328C79,300,56,257,56,208L56,148C56,64,125,-4,208,-4M120,448L120,488C120,536,160,576,208,576C257,576,296,536,296,488L296,448C296,399,257,360,208,360C160,360,120,399,120,448M296,208L296,148C296,99,257,60,208,60C160,60,120,99,120,148L120,208C120,256,160,296,208,296C257,296,296,256,296,208 Z"
   id="glyph101" />
<glyph
   unicode="9"
   horiz-adv-x="416"
   d="M199,236C233,236,262,245,287,264L287,148C287,108,261,74,222,63C183,52,143,69,123,104C114,119,95,124,79,116C64,107,59,87,68,72C103,12,171,-18,239,1C306,20,351,79,351,148L351,488C351,572,283,640,199,640C116,640,47,572,47,488L47,388C47,304,116,236,199,236M199,576C248,576,287,536,287,488L287,388C287,339,248,300,199,300C151,300,111,339,111,388L111,488C111,536,151,576,199,576 Z"
   id="glyph103" />
<glyph
   unicode="A"
   horiz-adv-x="432"
   d="M407,36L247,616C243,631,231,640,216,640C201,640,189,631,185,616L25,36C20,19,30,2,47,-3C66,-8,82,2,87,19C90,29,93,40,96,52C103,73,108,101,119,136L313,136C322,101,329,73,336,52C339,40,342,29,345,19C350,2,367,-8,384,-3C403,2,412,19,407,36M295,200L137,200C164,299,195,416,216,488C235,416,268,299,295,200 Z"
   id="glyph105" />
<glyph
   unicode="B"
   horiz-adv-x="428"
   d="M68,604L68,32C68,13,81,0,100,0L220,0C304,0,372,68,372,152L372,208C372,257,349,300,313,328C349,356,372,399,372,448L372,484C372,568,304,636,220,636L100,636C81,636,68,623,68,604M308,208L308,152C308,103,268,64,220,64L132,64L132,296L220,296C268,296,308,256,308,208M308,484L308,448C308,399,268,360,220,360L132,360L132,572L220,572C268,572,308,532,308,484 Z"
   id="glyph107" />
<glyph
   unicode="C"
   horiz-adv-x="385"
   d="M169,1C235,-17,306,12,340,72C348,87,343,107,328,116C313,124,293,119,284,104C264,69,224,52,185,63C146,74,120,108,120,148L120,488C120,528,146,562,185,573C224,584,264,567,284,532C293,517,313,511,328,520C343,529,348,549,340,564C305,623,236,654,169,635C101,616,56,557,56,488L56,148C56,79,101,20,169,1 Z"
   id="glyph109" />
<glyph
   unicode="D"
   horiz-adv-x="428"
   d="M220,636L100,636C81,636,68,623,68,604L68,32C68,13,81,0,100,0L220,0C304,0,372,68,372,152L372,484C372,568,304,636,220,636M308,484L308,152C308,103,269,64,220,64L132,64L132,572L220,572C269,572,308,532,308,484 Z"
   id="glyph111" />
<glyph
   unicode="L"
   horiz-adv-x="348"
   d="M100,0L300,0C317,0,332,13,332,32C332,51,317,64,300,64L132,64L132,608C132,627,117,640,100,640C81,640,68,627,68,608L68,32C68,13,81,0,100,0 Z"
   id="glyph113" />
<glyph
   unicode="P"
   horiz-adv-x="400"
   d="M68,604L68,28C68,9,81,-4,100,-4C119,-4,132,9,132,28L132,276L220,276C304,276,372,344,372,428L372,484C372,568,304,636,220,636L100,636C81,636,68,623,68,604M308,484L308,428C308,379,268,340,220,340L132,340L132,572L220,572C268,572,308,532,308,484 Z"
   id="glyph115" />
<glyph
   unicode="S"
   horiz-adv-x="382"
   d="M240,79C218,62,193,57,166,62C139,67,117,83,104,106C95,122,75,127,60,118C45,109,40,90,48,74C71,35,109,8,153,-1C197,-10,243,1,279,28C315,55,337,96,341,141C344,186,328,230,297,262L137,427C119,446,111,469,113,495C115,522,126,543,147,558C168,574,192,579,218,574C244,569,264,555,277,532C285,517,305,511,320,520C336,529,341,549,332,564C309,603,274,628,231,637C188,646,144,636,109,609C74,582,52,543,49,499C45,456,60,413,91,382L251,218C270,199,280,173,277,146C275,118,263,96,240,79 Z"
   id="glyph117" />
<glyph
   unicode="T"
   horiz-adv-x="380"
   d="M320,636L60,636C43,636,28,623,28,604C28,585,43,572,60,572L158,572L158,28C158,9,173,-4,190,-4C209,-4,222,9,222,28L222,572L320,572C339,572,352,585,352,604C352,623,339,636,320,636 Z"
   id="glyph119" />
<glyph
   unicode="V"
   horiz-adv-x="448"
   d="M34,599L194,19C198,6,210,-4,225,-4C240,-4,252,6,255,19L415,599C420,616,410,634,393,639C376,643,358,633,354,616C337,555,320,495,304,437C277,339,244,221,225,148C203,221,172,338,145,437C129,495,112,555,95,616C91,633,73,643,56,639C39,634,29,616,34,599 Z"
   id="glyph121" />
<glyph
   unicode="Y"
   horiz-adv-x="402"
   d="M169,320L169,28C169,9,182,-4,201,-4C220,-4,233,9,233,28L233,320L370,594C378,609,371,629,355,637C339,644,320,638,312,622L201,400L90,622C82,638,62,644,47,637C31,629,24,609,32,594L169,320 Z"
   id="glyph123" />
<glyph
   unicode="a"
   horiz-adv-x="352"
   d="M230,262L160,262C88,262,30,204,30,132C30,60,88,2,160,2L260,2C276,2,290,15,290,32L290,330C290,382,259,428,211,448C163,468,108,457,71,420C65,415,62,408,62,399C62,391,65,384,71,378C77,372,84,369,92,369C101,369,108,372,114,378C133,398,161,404,188,393C213,382,230,358,230,330L230,262M90,132C90,171,121,202,160,202L230,202L230,62L160,62C121,62,90,93,90,132 Z"
   id="glyph125" />
<glyph
   unicode="b"
   horiz-adv-x="388"
   d="M100,2L200,2C271,2,330,60,330,132L330,324C330,396,271,454,200,454L130,454L130,628C130,645,116,658,100,658C83,658,70,645,70,628L70,32C70,15,83,2,100,2M130,394L200,394C239,394,270,363,270,324L270,132C270,93,239,62,200,62L130,62L130,394 Z"
   id="glyph127" />
<glyph
   unicode="c"
   horiz-adv-x="328"
   d="M138,8C187,-12,241,-1,280,36C285,42,288,49,288,57C288,66,285,73,280,78C274,84,267,87,258,87C250,87,243,84,237,78C217,58,188,52,161,63C134,74,118,100,118,128L118,328C118,356,134,382,161,393C188,404,217,398,237,377C243,372,250,369,258,369C267,369,274,372,280,377C285,383,288,390,288,398C288,407,285,414,280,420C241,457,187,468,138,448C89,428,58,381,58,328L58,128C58,75,89,28,138,8 Z"
   id="glyph129" />
<glyph
   unicode="d"
   horiz-adv-x="388"
   d="M188,2L288,2C304,2,318,15,318,32L318,628C318,645,304,658,288,658C271,658,258,645,258,628L258,454L188,454C116,454,58,396,58,324L58,132C58,60,116,2,188,2M188,394L258,394L258,62L188,62C149,62,118,93,118,132L118,324C118,363,149,394,188,394 Z"
   id="glyph131" />
<glyph
   unicode="e"
   horiz-adv-x="368"
   d="M138,8C187,-12,243,-1,280,36C286,42,289,49,289,57C289,66,286,73,280,78C274,84,267,87,258,87C250,87,243,84,237,78C217,58,188,52,161,63C134,74,118,100,118,128L118,198L288,198C305,198,318,211,318,228L318,328C318,400,260,458,188,458C116,458,58,400,58,328L58,128C58,75,89,28,138,8M188,398C227,398,258,367,258,328L258,258L118,258L118,328C118,367,149,398,188,398 Z"
   id="glyph133" />
<glyph
   unicode="f"
   horiz-adv-x="296"
   d="M56,394L106,394L106,28C106,11,119,-2,136,-2C153,-2,166,11,166,28L166,394L236,394C253,394,266,407,266,424C266,441,253,454,236,454L166,454L166,528C166,567,197,598,236,598C253,598,266,611,266,628C266,645,253,658,236,658C164,658,106,600,106,528L106,454L56,454C39,454,26,441,26,424C26,407,39,394,56,394 Z"
   id="glyph135" />
<glyph
   unicode="g"
   horiz-adv-x="384"
   d="M188,2L258,2L258,-72C258,-100,242,-126,215,-137C188,-148,159,-142,139,-122C133,-116,126,-113,117,-113C109,-113,102,-116,96,-122C90,-127,87,-134,87,-142C87,-151,90,-158,96,-164C135,-201,189,-212,238,-192C287,-172,318,-125,318,-72L318,424C318,441,305,454,288,454L188,454C116,454,58,396,58,324L58,132C58,60,116,2,188,2M188,394L258,394L258,62L188,62C149,62,118,93,118,132L118,324C118,363,149,394,188,394 Z"
   id="glyph137" />
<glyph
   unicode="h"
   horiz-adv-x="392"
   d="M100,-2C117,-2,130,11,130,28L130,394L200,394C239,394,270,363,270,324L270,28C270,11,284,-2,300,-2C317,-2,330,11,330,28L330,324C330,396,272,454,200,454L130,454L130,628C130,645,117,658,100,658C84,658,70,645,70,628L70,28C70,11,84,-2,100,-2 Z"
   id="glyph139" />
<glyph
   unicode="i"
   horiz-adv-x="200"
   d="M100,538C123,538,140,555,140,578C140,601,123,618,100,618C77,618,60,601,60,578C60,555,77,538,100,538M130,28L130,428C130,445,117,458,100,458C84,458,70,445,70,428L70,28C70,11,84,-2,100,-2C117,-2,130,11,130,28 Z"
   id="glyph141" />
<glyph
   unicode="j"
   horiz-adv-x="208"
   d="M108,538C131,538,148,555,148,578C148,601,131,618,108,618C85,618,68,601,68,578C68,555,85,538,108,538M8,-202C80,-202,138,-144,138,-72L138,428C138,445,125,458,108,458C92,458,78,445,78,428L78,-72C78,-111,47,-142,8,-142C-8,-142,-22,-155,-22,-172C-22,-189,-8,-202,8,-202 Z"
   id="glyph143" />
<glyph
   unicode="l"
   horiz-adv-x="200"
   d="M122,2C137,-6,155,-2,163,13C172,28,167,46,152,54C137,63,127,78,127,97L127,628C127,645,114,658,97,658C81,658,67,645,67,628L67,97C67,58,89,22,122,2 Z"
   id="glyph145" />
<glyph
   unicode="m"
   horiz-adv-x="592"
   d="M130,394L270,394L270,28C270,11,283,-2,300,-2C316,-2,330,11,330,28L330,394L400,394C439,394,470,363,470,324L470,28C470,11,483,-2,500,-2C516,-2,530,11,530,28L530,324C530,396,471,454,400,454L100,454C83,454,70,441,70,424L70,28C70,11,83,-2,100,-2C116,-2,130,11,130,28L130,394 Z"
   id="glyph147" />
<glyph
   unicode="n"
   horiz-adv-x="392"
   d="M100,-2C116,-2,130,11,130,28L130,394L200,394C239,394,270,363,270,324L270,28C270,11,283,-2,300,-2C316,-2,330,11,330,28L330,324C330,396,271,454,200,454L100,454C83,454,70,441,70,424L70,28C70,11,83,-2,100,-2 Z"
   id="glyph149" />
<glyph
   unicode="o"
   horiz-adv-x="376"
   d="M188,-2C259,-2,318,56,318,128L318,328C318,400,259,458,188,458C116,458,58,400,58,328L58,128C58,56,116,-2,188,-2M188,398C227,398,258,367,258,328L258,128C258,89,227,58,188,58C149,58,118,89,118,128L118,328C118,367,149,398,188,398 Z"
   id="glyph151" />
<glyph
   unicode="p"
   horiz-adv-x="388"
   d="M100,-202C116,-202,130,-189,130,-172L130,2L200,2C271,2,330,60,330,132L330,324C330,396,271,454,200,454L100,454C83,454,70,441,70,424L70,-172C70,-189,83,-202,100,-202M270,324L270,132C270,93,239,62,200,62L130,62L130,394L200,394C239,394,270,363,270,324 Z"
   id="glyph153" />
<glyph
   unicode="q"
   horiz-adv-x="388"
   d="M188,2L258,2L258,-172C258,-189,271,-202,288,-202C304,-202,318,-189,318,-172L318,424C318,441,304,454,288,454L188,454C116,454,58,396,58,324L58,132C58,60,116,2,188,2M188,394L258,394L258,62L188,62C149,62,118,93,118,132L118,324C118,363,149,394,188,394 Z"
   id="glyph155" />
<glyph
   unicode="r"
   horiz-adv-x="299"
   d="M100,-2C117,-2,130,11,130,28L130,394L200,394C212,394,224,391,235,385C250,376,268,381,276,396C284,411,280,428,265,437C244,448,223,454,200,454L100,454C83,454,70,441,70,424L70,28C70,11,83,-2,100,-2 Z"
   id="glyph157" />
<glyph
   unicode="s"
   horiz-adv-x="329"
   d="M202,75C186,61,168,56,149,59C129,62,114,73,103,90C95,105,77,109,62,101C47,93,43,75,51,60C70,27,101,6,140,-1C177,-6,214,4,242,31C270,56,285,91,282,130C279,169,261,201,230,224L137,289C121,300,112,315,111,334C110,353,116,369,130,382C144,395,161,400,180,397C199,394,214,384,223,368C231,353,249,349,264,357C279,365,283,383,275,398C256,430,225,450,189,457C153,462,117,451,90,426C63,402,48,367,51,330C54,294,71,261,102,240L195,174C212,162,221,146,222,126C224,106,217,89,202,75 Z"
   id="glyph159" />
<glyph
   unicode="t"
   horiz-adv-x="296"
   d="M56,394L106,394L106,128C106,56,164,-2,236,-2C253,-2,266,11,266,28C266,45,253,58,236,58C197,58,166,89,166,128L166,394L236,394C253,394,266,407,266,424C266,441,253,454,236,454L166,454L166,628C166,645,153,658,136,658C119,658,106,645,106,628L106,454L56,454C39,454,26,441,26,424C26,407,39,394,56,394 Z"
   id="glyph161" />
<glyph
   unicode="u"
   horiz-adv-x="392"
   d="M192,2L292,2C309,2,322,15,322,32L322,428C322,445,309,458,292,458C275,458,262,445,262,428L262,62L192,62C153,62,122,93,122,132L122,428C122,445,109,458,92,458C75,458,62,445,62,428L62,132C62,60,120,2,192,2 Z"
   id="glyph163" />
<glyph
   unicode="v"
   horiz-adv-x="370"
   d="M36,419L156,19C160,7,172,-2,185,-2C198,-2,210,7,214,19L334,419C339,435,330,452,314,457C298,461,281,452,276,437L243,326C224,263,201,188,185,132C168,188,146,263,127,326L94,437C89,452,72,461,57,457C41,452,32,435,36,419 Z"
   id="glyph165" />
<glyph
   unicode="w"
   horiz-adv-x="538"
   d="M39,421L139,21C144,6,153,-2,168,-2C183,-2,194,6,197,21C206,54,214,86,222,119C237,175,253,244,268,304C283,244,300,175,315,119C323,86,331,54,339,21C344,6,353,-2,368,-2C383,-2,394,6,397,21L497,421C501,437,492,453,476,457C459,461,443,451,439,435C431,402,423,370,415,337C400,281,383,211,368,152C353,211,337,281,322,337C314,370,306,402,297,435C294,450,283,458,268,458C253,458,244,450,239,435C231,402,223,370,215,337C200,281,183,211,168,152C153,211,137,281,122,337C114,370,106,402,97,435C93,451,77,461,61,457C45,453,35,437,39,421 Z"
   id="glyph167" />
<glyph
   unicode="y"
   horiz-adv-x="369"
   d="M50,-202C79,-202,105,-193,128,-176C150,-160,166,-138,175,-109L213,19L333,419C338,435,329,452,313,457C297,461,280,452,276,437L184,132L93,437C88,452,72,461,56,457C40,452,31,435,36,419L153,28L117,-92C108,-123,81,-142,50,-142C33,-142,20,-155,20,-172C20,-189,33,-202,50,-202 Z"
   id="glyph169" />
<glyph
   unicode="z"
   horiz-adv-x="344"
   d="M42,32C42,26,43,21,46,16C51,7,60,2,72,2L272,2C288,2,302,15,302,32C302,49,288,62,272,62L121,62C137,96,183,184,223,262C246,308,271,357,298,410C301,415,302,419,302,424C302,429,300,435,297,440C292,449,283,454,272,454L72,454C55,454,42,441,42,424C42,407,55,394,72,394L223,394C205,360,160,271,120,194C97,148,72,99,45,46C43,41,42,36,42,32 Z"
   id="glyph171" />
<glyph
   unicode="á"
   horiz-adv-x="352"
   d="M290,32L290,330C290,382,259,428,211,448C163,468,108,457,71,420C66,415,63,408,63,399C63,391,66,384,71,378C77,372,84,369,92,369C101,369,108,372,114,378C133,398,161,404,188,393C213,382,230,358,230,330L230,262L160,262C88,262,30,204,30,132C30,60,88,2,160,2L260,2C276,2,290,15,290,32M90,132C90,171,121,202,160,202L230,202L230,62L160,62C121,62,90,93,90,132M150,516L250,606C262,617,263,636,252,648C241,660,222,661,210,650L110,560C97,549,96,530,107,518C119,506,137,505,150,516 Z"
   id="glyph173" />
<glyph
   unicode="ó"
   horiz-adv-x="376"
   d="M116,518C127,506,146,505,158,516L258,606C270,617,271,636,260,648C249,660,230,661,218,650L118,560C106,549,105,530,116,518M188,-2C260,-2,318,56,318,128L318,328C318,400,260,458,188,458C116,458,58,400,58,328L58,128C58,56,116,-2,188,-2M188,398C227,398,258,367,258,328L258,128C258,89,227,58,188,58C149,58,118,89,118,128L118,328C118,367,149,398,188,398 Z"
   id="glyph175" />
</font>
<font
   horiz-adv-x="0"
   id="font177"
   horiz-origin-x="0"
   horiz-origin-y="0"
   vert-origin-x="45"
   vert-origin-y="90"
   vert-adv-y="90"><font-face
   font-family="fnt4"
   units-per-em="1000"
   ascent="712"
   descent="-220"
   id="font-face179" />
<missing-glyph
   horiz-adv-x="0"
   id="missing-glyph181" />
<glyph
   unicode=" "
   horiz-adv-x="192"
   d="M0 0 Z"
   id="glyph183" />
<glyph
   unicode=","
   horiz-adv-x="192"
   d="M63,-6C39,-17,27,-42,38,-66C49,-89,74,-101,98,-90C134,-75,158,-40,158,0L158,48C158,73,137,93,112,93L80,93C55,93,35,73,35,48C35,28,48,11,67,4L67,0C67,-3,66,-5,63,-6 Z"
   id="glyph185" />
<glyph
   unicode="."
   horiz-adv-x="192"
   d="M38,38C38,6,64,-20,96,-20C128,-20,154,6,154,38C154,70,128,96,96,96C64,96,38,70,38,38 Z"
   id="glyph187" />
<glyph
   unicode="0"
   horiz-adv-x="416"
   d="M208,-20C300,-20,376,55,376,148L376,488C376,581,300,656,208,656C115,656,40,581,40,488L40,148C40,55,115,-20,208,-20M208,560C247,560,280,528,280,488L280,148C280,108,247,76,208,76C168,76,136,108,136,148L136,488C136,528,168,560,208,560 Z"
   id="glyph189" />
<glyph
   unicode="1"
   horiz-adv-x="416"
   d="M146,454C151,458,155,462,159,467C166,474,175,484,184,492L184,28C184,1,205,-20,232,-20C259,-20,280,1,280,28L280,608C280,627,269,645,250,652C231,661,213,657,198,642L78,522C69,513,64,501,64,488C64,475,69,463,78,454C87,445,99,440,112,440C125,440,137,445,146,454 Z"
   id="glyph191" />
<glyph
   unicode="5"
   horiz-adv-x="416"
   d="M91,272C112,265,134,275,145,294C161,322,194,336,226,327C257,319,279,290,279,258L279,148C279,115,257,87,226,78C194,70,161,84,145,112C130,135,102,143,79,130C56,115,47,87,62,64C101,-3,176,-34,251,-14C324,5,375,71,375,148L375,258C375,334,324,401,251,420C217,429,184,427,151,416L151,556L311,556C338,556,359,577,359,604C359,631,338,652,311,652L103,652C76,652,55,631,55,604L55,318C55,295,70,277,91,272 Z"
   id="glyph193" />
<glyph
   unicode="M"
   horiz-adv-x="520"
   d="M100,-20C127,-20,148,1,148,28L148,393C164,357,181,321,194,294C201,278,209,263,216,248C225,229,239,220,260,220C279,220,295,231,303,248C310,263,318,278,325,294C338,321,355,357,372,393L372,28C372,1,393,-20,420,-20C447,-20,468,1,468,28L468,608C468,631,453,650,430,655C407,660,387,649,376,628C362,599,348,570,335,541C312,490,283,430,260,381C237,430,207,490,184,541C170,570,156,599,143,628C134,649,112,660,89,655C66,650,52,631,52,608L52,28C52,1,73,-20,100,-20 Z"
   id="glyph195" />
<glyph
   unicode="S"
   horiz-adv-x="382"
   d="M231,92C213,78,192,73,169,77C146,82,129,95,118,114C103,137,75,145,52,132C29,119,20,89,35,66C59,23,101,-6,150,-17C199,-26,249,-16,289,15C328,46,353,89,357,140C361,189,343,238,308,274L149,438C134,453,127,472,129,493C130,515,140,532,157,545C174,558,194,563,215,559C236,554,252,542,263,524C276,501,305,493,328,506C351,521,359,549,346,572C322,615,281,642,234,653C187,662,138,651,99,622C60,593,37,549,33,501C29,453,45,406,80,371L240,207C256,190,263,170,261,147C258,124,250,105,231,92 Z"
   id="glyph197" />
<glyph
   unicode="a"
   horiz-adv-x="352"
   d="M215,277L160,277C80,277,15,212,15,132C15,52,80,-13,160,-13L260,-13C285,-13,305,7,305,32L305,330C305,389,271,439,216,462C163,485,102,472,61,431C52,422,47,411,47,399C47,387,52,376,61,367C70,358,80,354,92,354C105,354,115,358,124,367C139,383,162,387,182,379C202,371,215,351,215,330L215,277M160,187L215,187L215,77L160,77C129,77,105,101,105,132C105,163,129,187,160,187 Z"
   id="glyph199" />
<glyph
   unicode="b"
   horiz-adv-x="388"
   d="M100,-13L200,-13C280,-13,345,52,345,132L345,324C345,404,280,469,200,469L145,469L145,628C145,653,125,673,100,673C75,673,55,653,55,628L55,32C55,7,75,-13,100,-13M145,379L200,379C231,379,255,355,255,324L255,132C255,101,231,77,200,77L145,77L145,379 Z"
   id="glyph201" />
<glyph
   unicode="c"
   horiz-adv-x="328"
   d="M132,-6C188,-29,249,-16,290,25C299,34,304,45,304,57C304,69,299,80,290,89C281,98,271,103,258,103C246,103,236,98,227,89C211,73,187,69,167,77C146,86,133,105,133,128L133,328C133,351,146,370,167,379C187,387,211,383,227,367C236,358,246,353,258,353C271,353,281,358,290,367C299,376,304,386,304,398C304,411,299,421,290,430C249,473,188,485,132,462C77,439,43,388,43,328L43,128C43,68,77,17,132,-6 Z"
   id="glyph203" />
<glyph
   unicode="d"
   horiz-adv-x="388"
   d="M188,-13L288,-13C313,-13,333,7,333,32L333,628C333,653,313,673,288,673C263,673,243,653,243,628L243,469L188,469C108,469,43,404,43,324L43,132C43,52,108,-13,188,-13M188,379L243,379L243,77L188,77C157,77,133,101,133,132L133,324C133,355,157,379,188,379 Z"
   id="glyph205" />
<glyph
   unicode="e"
   horiz-adv-x="368"
   d="M133,-6C188,-29,248,-16,291,25C300,34,304,45,304,57C304,69,300,80,291,89C282,98,271,103,258,103C246,103,236,98,227,89C211,73,188,69,167,77C146,86,133,105,133,128L133,183L288,183C313,183,333,203,333,228L333,328C333,408,268,473,188,473C108,473,43,408,43,328L43,128C43,68,77,17,133,-6M188,383C219,383,243,359,243,328L243,273L133,273L133,328C133,359,157,383,188,383 Z"
   id="glyph207" />
<glyph
   unicode="g"
   horiz-adv-x="384"
   d="M188,-13L243,-13L243,-72C243,-95,230,-114,209,-123C189,-131,165,-127,149,-111C140,-102,130,-97,117,-97C105,-97,95,-102,86,-111C77,-120,72,-131,72,-143C72,-155,77,-166,86,-175C127,-216,188,-229,244,-206C299,-183,333,-132,333,-72L333,424C333,449,313,469,288,469L188,469C108,469,43,404,43,324L43,132C43,52,108,-13,188,-13M188,379L243,379L243,77L188,77C157,77,133,101,133,132L133,324C133,355,157,379,188,379 Z"
   id="glyph209" />
<glyph
   unicode="i"
   horiz-adv-x="200"
   d="M100,523C131,523,155,547,155,578C155,609,131,633,100,633C69,633,45,609,45,578C45,547,69,523,100,523M145,28L145,428C145,453,125,473,100,473C75,473,55,453,55,428L55,28C55,3,75,-17,100,-17C125,-17,145,3,145,28 Z"
   id="glyph211" />
<glyph
   unicode="j"
   horiz-adv-x="208"
   d="M108,523C139,523,163,547,163,578C163,609,139,633,108,633C77,633,53,609,53,578C53,547,77,523,108,523M8,-217C88,-217,153,-152,153,-72L153,428C153,453,133,473,108,473C83,473,63,453,63,428L63,-72C63,-103,39,-127,8,-127C-17,-127,-37,-147,-37,-172C-37,-197,-17,-217,8,-217 Z"
   id="glyph213" />
<glyph
   unicode="l"
   horiz-adv-x="200"
   d="M115,-11C136,-23,164,-16,176,5C189,28,181,54,160,67C148,74,142,84,142,97L142,628C142,653,122,673,97,673C73,673,52,653,52,628L52,97C52,53,76,12,115,-11 Z"
   id="glyph215" />
<glyph
   unicode="m"
   horiz-adv-x="592"
   d="M145,379L255,379L255,28C255,3,275,-17,300,-17C324,-17,345,3,345,28L345,379L400,379C431,379,455,355,455,324L455,28C455,3,475,-17,500,-17C524,-17,545,3,545,28L545,324C545,404,479,469,400,469L100,469C75,469,55,449,55,424L55,28C55,3,75,-17,100,-17C124,-17,145,3,145,28L145,379 Z"
   id="glyph217" />
<glyph
   unicode="n"
   horiz-adv-x="392"
   d="M100,-17C124,-17,145,3,145,28L145,379L200,379C231,379,255,355,255,324L255,28C255,3,275,-17,300,-17C324,-17,345,3,345,28L345,324C345,404,280,469,200,469L100,469C75,469,55,449,55,424L55,28C55,3,75,-17,100,-17 Z"
   id="glyph219" />
<glyph
   unicode="o"
   horiz-adv-x="376"
   d="M188,-17C268,-17,333,48,333,128L333,328C333,408,268,473,188,473C108,473,43,408,43,328L43,128C43,48,108,-17,188,-17M188,383C219,383,243,359,243,328L243,128C243,97,219,73,188,73C157,73,133,97,133,128L133,328C133,359,157,383,188,383 Z"
   id="glyph221" />
<glyph
   unicode="p"
   horiz-adv-x="388"
   d="M100,-217C125,-217,145,-197,145,-172L145,-13L200,-13C280,-13,345,52,345,132L345,324C345,404,280,469,200,469L100,469C75,469,55,449,55,424L55,-172C55,-197,75,-217,100,-217M255,324L255,132C255,101,231,77,200,77L145,77L145,379L200,379C231,379,255,355,255,324 Z"
   id="glyph223" />
<glyph
   unicode="r"
   horiz-adv-x="299"
   d="M100,-17C125,-17,145,3,145,28L145,379L200,379C209,379,218,377,227,372C250,359,276,367,289,388C301,411,295,437,272,450C249,463,225,469,200,469L100,469C75,469,55,449,55,424L55,28C55,3,75,-17,100,-17 Z"
   id="glyph225" />
<glyph
   unicode="s"
   horiz-adv-x="329"
   d="M191,86C179,75,166,71,151,74C135,76,123,84,116,98C104,119,77,126,54,114C33,102,26,74,38,53C59,16,94,-8,137,-15C180,-22,221,-9,252,19C284,48,300,88,297,131C294,174,273,211,238,236L145,301C134,310,127,321,126,335C125,350,130,362,141,371C152,381,165,385,178,382C192,380,203,373,210,360C222,339,250,332,271,344C294,356,300,384,288,405C267,441,232,464,192,471C151,478,111,465,80,438C49,410,33,370,36,329C39,288,60,251,93,227L187,162C199,154,206,142,207,125C208,109,203,96,191,86 Z"
   id="glyph227" />
<glyph
   unicode="t"
   horiz-adv-x="296"
   d="M56,379L91,379L91,128C91,48,156,-17,236,-17C261,-17,281,3,281,28C281,53,261,73,236,73C205,73,181,97,181,128L181,379L236,379C261,379,281,399,281,424C281,449,261,469,236,469L181,469L181,628C181,653,161,673,136,673C111,673,91,653,91,628L91,469L56,469C31,469,11,449,11,424C11,399,31,379,56,379 Z"
   id="glyph229" />
<glyph
   unicode="u"
   horiz-adv-x="392"
   d="M192,-13L292,-13C317,-13,337,7,337,32L337,428C337,453,317,473,292,473C267,473,247,453,247,428L247,77L192,77C161,77,137,101,137,132L137,428C137,453,117,473,92,473C67,473,47,453,47,428L47,132C47,52,112,-13,192,-13 Z"
   id="glyph231" />
<glyph
   unicode="v"
   horiz-adv-x="370"
   d="M22,415L142,15C149,-4,165,-17,185,-17C205,-17,223,-4,228,15L348,415C355,439,342,464,318,471C294,478,269,465,262,441C254,414,246,386,237,357C222,308,204,245,185,185C166,245,148,308,133,357C124,386,116,414,108,441C101,465,76,478,52,471C28,464,15,439,22,415 Z"
   id="glyph233" />
<glyph
   unicode="y"
   horiz-adv-x="369"
   d="M50,-217C81,-217,110,-207,137,-188C162,-170,180,-145,189,-114L227,15L348,415C355,439,341,464,317,471C294,478,268,465,261,441L184,185L108,441C100,465,75,478,52,471C28,464,14,439,21,415L137,28L103,-88C96,-111,75,-127,50,-127C25,-127,5,-147,5,-172C5,-197,25,-217,50,-217 Z"
   id="glyph235" />
<glyph
   unicode="Á"
   horiz-adv-x="432"
   d="M236,862L136,772C117,755,115,727,132,708C149,689,177,687,196,704L296,794C315,811,317,839,300,858C283,877,255,879,236,862M422,41L262,621C257,642,239,656,216,656C193,656,175,642,170,621L10,41C3,14,18,-11,43,-18C70,-25,95,-10,102,15C105,23,107,33,110,44C115,63,122,89,131,120L301,120C309,89,317,63,322,44C325,33,327,23,330,15C337,-10,362,-25,389,-18C414,-11,429,14,422,41M274,216L158,216C177,285,197,362,216,427C235,362,255,285,274,216 Z"
   id="glyph237" />
<glyph
   unicode="ó"
   horiz-adv-x="376"
   d="M106,509C122,492,148,490,167,506L267,596C284,612,286,638,270,657C254,674,228,676,209,660L109,570C92,554,90,528,106,509M333,128L333,328C333,408,268,473,188,473C108,473,43,408,43,328L43,128C43,48,108,-17,188,-17C268,-17,333,48,333,128M188,73C157,73,133,97,133,128L133,328C133,359,157,383,188,383C219,383,243,359,243,328L243,128C243,97,219,73,188,73 Z"
   id="glyph239" />
</font>
<font
   horiz-adv-x="0"
   id="font241"
   horiz-origin-x="0"
   horiz-origin-y="0"
   vert-origin-x="45"
   vert-origin-y="90"
   vert-adv-y="90"><font-face
   font-family="fnt6"
   units-per-em="1000"
   ascent="950"
   descent="-350"
   id="font-face243" />
<missing-glyph
   horiz-adv-x="0"
   id="missing-glyph245" />
<glyph
   unicode=" "
   horiz-adv-x="157"
   d="M0 0 Z"
   id="glyph247" />
<glyph
   unicode="."
   horiz-adv-x="194"
   d="M100,-8C132,-8,151,15,151,50C151,85,131,109,100,109C72,109,49,84,49,50C49,15,71,-8,99,-8L100,-8 Z"
   id="glyph249" />
<glyph
   unicode="/"
   horiz-adv-x="281"
   d="M65,-40L281,682L223,682L8,-40L65,-40 Z"
   id="glyph251" />
<glyph
   unicode="0"
   horiz-adv-x="385"
   d="M198,658C92,658,27,543,27,324C27,112,88,-8,189,-8C283,-8,358,89,358,326C358,533,303,658,198,658M194,592C256,592,281,477,281,325C281,169,256,58,195,58C131,58,104,168,104,325C104,481,132,592,194,592 Z"
   id="glyph253" />
<glyph
   unicode="2"
   horiz-adv-x="385"
   d="M345,0L345,68L128,68L128,70L172,130C252,240,332,358,332,480C332,578,285,658,177,658C118,658,73,633,50,614L69,556C86,567,116,592,163,592C224,592,256,548,256,476C256,354,164,232,87,125L32,50L32,0L345,0 Z"
   id="glyph255" />
<glyph
   unicode="4"
   horiz-adv-x="385"
   d="M304,0L304,179L375,179L375,242L304,242L304,650L229,650L18,231L18,179L234,179L234,0L304,0M91,242L91,244L181,431C200,471,214,502,236,554L240,554C237,511,234,471,234,426L234,242L91,242 Z"
   id="glyph257" />
<glyph
   unicode="9"
   horiz-adv-x="385"
   d="M67,-8C83,-8,100,-7,121,-3C178,10,233,44,271,96C325,168,357,269,357,397C357,541,305,658,194,658C94,658,30,557,30,438C30,320,91,245,172,245C219,245,253,269,277,300L280,300C269,214,240,155,204,115C180,90,148,72,115,64C98,60,84,58,67,58L67,-8M190,598C241,598,280,539,280,403C280,381,278,372,274,361C258,325,226,303,194,303C142,303,106,349,106,445C106,556,151,598,189,598L190,598 Z"
   id="glyph259" />
<glyph
   unicode="a"
   horiz-adv-x="364"
   d="M310,319C310,428,268,492,171,492C123,492,78,475,58,460L75,406C98,421,125,431,155,431C216,431,232,386,232,321L232,306C123,305,26,251,26,130C26,47,76,-8,141,-8C182,-8,216,14,237,51L240,51L245,0L315,0C310,31,310,73,310,110L310,319M234,152C234,144,234,134,232,125C223,77,194,52,160,52C133,52,101,75,101,138C101,243,194,250,234,250L234,152 Z"
   id="glyph261" />
<glyph
   unicode="b"
   horiz-adv-x="399"
   d="M53,116C53,83,50,28,49,0L115,0L120,63L123,63C142,22,168,-8,219,-8C294,-8,366,72,366,247C366,405,309,492,234,492C193,492,157,475,132,427L130,427L130,692L53,692L53,116M130,306C130,317,130,329,132,340C138,381,168,426,204,426C266,426,289,340,289,243C289,140,267,56,205,56C184,56,151,69,133,141C130,149,130,160,130,171L130,306 Z"
   id="glyph263" />
<glyph
   unicode="c"
   horiz-adv-x="302"
   d="M280,71C262,63,245,58,224,58C153,58,110,126,110,239C110,334,145,426,222,426C247,426,267,418,277,413L292,476C278,484,250,491,224,491C103,491,33,378,33,239C33,79,104,-6,210,-6C244,-6,273,2,290,12L280,71 Z"
   id="glyph265" />
<glyph
   unicode="e"
   horiz-adv-x="363"
   d="M333,235C334,247,334,260,334,278C334,388,295,492,196,492C99,492,33,394,33,237C33,89,93,-6,209,-6C247,-6,288,2,315,17L303,74C284,63,256,55,223,55C167,55,109,87,108,235L333,235M109,292C112,358,138,432,188,432C225,432,262,389,260,292L109,292 Z"
   id="glyph267" />
<glyph
   unicode="l"
   horiz-adv-x="191"
   d="M54,0L131,0L131,692L54,692L54,0 Z"
   id="glyph269" />
<glyph
   unicode="p"
   horiz-adv-x="399"
   d="M53,-192L130,-192L130,48L132,48C145,21,171,-8,216,-8C292,-8,366,64,366,243C366,402,310,492,226,492C188,492,150,474,124,422L122,422L118,484L49,484C50,450,53,407,53,333L53,-192M130,301C130,314,130,326,132,338C137,382,168,426,203,426C264,426,288,342,288,242C288,144,268,56,204,56C183,56,148,69,133,138C130,149,130,163,130,178L130,301 Z"
   id="glyph271" />
<glyph
   unicode="r"
   horiz-adv-x="248"
   d="M53,0L130,0L130,268C130,284,131,299,133,312C141,368,177,413,226,413C232,413,237,413,242,412L242,491C237,491,232,492,226,492C181,492,140,454,124,408L122,408L118,484L49,484C50,448,53,400,53,359L53,0 Z"
   id="glyph273" />
<glyph
   unicode="s"
   horiz-adv-x="289"
   d="M22,22C43,5,82,-6,118,-6C197,-6,263,41,263,138C263,205,219,249,163,285C115,318,103,336,103,369C103,400,124,430,166,430C191,430,212,421,230,409L251,467C231,479,202,492,164,492C89,492,31,436,31,358C31,302,65,261,128,220C177,187,190,162,190,125C190,82,163,55,119,55C88,55,58,69,41,80L22,22 Z"
   id="glyph275" />
<glyph
   unicode="t"
   horiz-adv-x="255"
   d="M71,566L71,484L12,484L12,425L71,425L71,145C71,78,81,45,100,23C119,2,146,-6,176,-6C201,-6,219,-3,233,2L230,61C221,59,211,58,199,58C171,58,148,75,148,138L148,425L241,425L241,484L148,484L148,597L71,566 Z"
   id="glyph277" />
<glyph
   unicode="u"
   horiz-adv-x="398"
   d="M344,484L267,484L267,165C267,149,266,134,263,121C259,99,239,57,194,57C141,57,129,113,129,189L129,484L52,484L52,178C52,58,85,-8,170,-8C222,-8,259,27,274,51L276,51L281,0L348,0C347,36,344,78,344,132L344,484 Z"
   id="glyph279" />
<glyph
   unicode="v"
   horiz-adv-x="347"
   d="M13,484L139,0L208,0L334,484L258,484L198,212C191,175,183,134,178,94L175,94C169,136,161,179,154,212L93,484L13,484 Z"
   id="glyph281" />
</font>
<font
   horiz-adv-x="0"
   id="font283"
   horiz-origin-x="0"
   horiz-origin-y="0"
   vert-origin-x="45"
   vert-origin-y="90"
   vert-adv-y="90"><font-face
   font-family="fnt5"
   units-per-em="2048"
   ascent="799"
   descent="-200"
   id="font-face285" />
<missing-glyph
   horiz-adv-x="0"
   id="missing-glyph287" />
<glyph
   unicode="*"
   horiz-adv-x="1257"
   d="M994,1074L713,969L880,731L800,671L630,918L447,671L367,731L542,969L263,1074L298,1174L578,1074L578,1365L680,1365L680,1074L958,1174L994,1074 Z"
   id="glyph289" />
</font>
<font
   horiz-adv-x="0"
   id="font291"
   horiz-origin-x="0"
   horiz-origin-y="0"
   vert-origin-x="45"
   vert-origin-y="90"
   vert-adv-y="90"><font-face
   font-family="fnt0"
   units-per-em="1000"
   ascent="711"
   descent="-212"
   id="font-face293" />
<missing-glyph
   horiz-adv-x="0"
   id="missing-glyph295" />
<glyph
   unicode=" "
   horiz-adv-x="305"
   d="M0 0 Z"
   id="glyph297" />
<glyph
   unicode="C"
   horiz-adv-x="611"
   d="M517,606C545,606,565,619,565,647C565,675,545,688,517,688L304,688C170,688,41,598,41,415C41,164,252,-6,462,-6C527,-6,588,-6,588,39C588,62,572,76,549,76C321,72,139,194,139,407C139,605,289,606,377,606L517,606 Z"
   id="glyph299" />
<glyph
   unicode="D"
   horiz-adv-x="667"
   d="M72,40C72,12,78,0,100,0L348,0C524,0,625,111,625,283C625,523,428,694,162,694C103,694,72,683,72,648L72,40M160,608C380,608,531,469,531,283C531,125,452,82,322,82L160,82L160,608 Z"
   id="glyph301" />
<glyph
   unicode="T"
   horiz-adv-x="500"
   d="M294,606L446,606C474,606,494,619,494,647C494,675,474,688,446,688L54,688C26,688,6,675,6,647C6,619,26,606,54,606L206,606L206,49C206,18,220,-3,250,-3C280,-3,294,18,294,49L294,606 Z"
   id="glyph303" />
<glyph
   unicode="a"
   horiz-adv-x="500"
   d="M352,180C352,93,303,62,220,62C145,62,102,89,102,149C102,243,237,271,352,271L352,180M271,426C332,426,352,412,352,369L352,339C223,331,14,319,14,145C14,50,95,-6,206,-6C274,-6,306,12,358,51C358,19,371,0,399,0C427,0,440,19,440,51L440,328C440,417,416,508,284,508L99,508C70,508,51,495,51,467C51,439,70,426,99,426L271,426 Z"
   id="glyph305" />
<glyph
   unicode="b"
   horiz-adv-x="556"
   d="M150,639C150,669,139,691,106,691C73,691,62,669,62,639L62,44C63,14,80,0,104,0L270,0C434,0,519,78,519,212C519,393,395,514,150,514L150,639M150,82L150,432C287,426,427,376,427,220C427,118,370,82,272,82L150,82 Z"
   id="glyph307" />
<glyph
   unicode="e"
   horiz-adv-x="556"
   d="M139,316C152,380,198,438,294,438C375,438,426,386,430,316L139,316M469,248C517,248,518,259,518,301C518,427,419,514,295,514C146,514,41,412,41,262C41,86,152,0,284,0L476,0C503,0,521,12,521,38C521,64,503,76,476,76L286,76C204,76,128,132,135,248L469,248 Z"
   id="glyph309" />
<glyph
   unicode="j"
   horiz-adv-x="222"
   d="M155,459C155,489,144,511,111,511C78,511,67,489,67,459L67,23C67,-90,19,-126,-45,-126C-79,-126,-101,-118,-125,-119C-149,-119,-165,-134,-165,-157C-165,-192,-123,-202,-41,-202C73,-202,155,-144,155,-16L155,459M111,682C79,682,64,654,64,624C64,594,79,566,111,566C143,566,158,594,158,624C158,654,143,682,111,682 Z"
   id="glyph311" />
<glyph
   unicode="l"
   horiz-adv-x="222"
   d="M155,639C155,669,144,691,111,691C78,691,67,669,67,639L67,49C67,18,81,-3,111,-3C141,-3,155,18,155,49L155,639 Z"
   id="glyph313" />
<glyph
   unicode="o"
   horiz-adv-x="556"
   d="M277,70C186,70,125,157,125,254C125,351,186,438,277,438C369,438,430,351,430,254C430,157,369,70,277,70M277,-6C413,-6,518,107,518,255C518,393,413,514,277,514C141,514,37,393,37,255C37,107,141,-6,277,-6 Z"
   id="glyph315" />
<glyph
   unicode="p"
   horiz-adv-x="556"
   d="M60,-144C60,-174,71,-196,104,-196C137,-196,148,-174,148,-144L148,0L269,0C393,0,519,52,519,236C519,378,389,514,197,514L136,514C85,514,60,506,60,456L60,-144M148,432L199,432C329,432,427,350,427,227C427,124,365,82,257,82L148,82L148,432 Z"
   id="glyph317" />
<glyph
   unicode="r"
   horiz-adv-x="333"
   d="M68,49C68,19,79,-3,112,-3C145,-3,156,19,156,49L156,314C156,392,218,432,291,432C323,432,336,447,336,475C336,504,317,514,284,514C220,514,177,490,158,427L156,427L156,456C156,486,145,508,112,508C79,508,68,486,68,456L68,49 Z"
   id="glyph319" />
<glyph
   unicode="t"
   horiz-adv-x="333"
   d="M196,514L196,598C196,628,185,650,152,650C119,650,108,628,108,598L108,514L84,514C56,514,36,501,36,473C36,445,56,432,84,432L108,432L108,109C108,1,183,-6,288,-6C320,-6,340,10,340,35C340,60,320,76,288,76C221,76,196,79,196,128L196,432L274,432C302,432,322,445,322,473C322,501,302,514,274,514L196,514 Z"
   id="glyph321" />
<glyph
   unicode="u"
   horiz-adv-x="556"
   d="M490,459C490,489,479,511,446,511C413,511,402,489,402,459L402,218C402,138,345,76,268,76C183,76,154,128,154,217L154,459C154,489,143,511,110,511C77,511,66,489,66,459L66,181C66,72,135,-6,253,-6C317,-6,376,16,410,77L412,75L412,40C412,16,427,0,451,0C475,0,490,16,490,40L490,459 Z"
   id="glyph323" />
<glyph
   unicode="v"
   horiz-adv-x="500"
   d="M250,-6C287,-6,299,17,313,36C404,161,478,369,478,461C478,497,464,511,440,511C414,511,400,489,396,463C381,363,352,262,292,159C279,137,266,112,250,95C234,112,221,137,208,159C148,262,119,363,104,463C100,489,86,511,60,511C36,511,22,497,22,461C22,369,96,161,187,36C201,17,213,-6,250,-6 Z"
   id="glyph325" />
<glyph
   unicode="é"
   horiz-adv-x="556"
   d="M139,316C152,380,198,438,294,438C375,438,426,386,430,316L139,316M469,248C517,248,518,259,518,301C518,427,419,514,295,514C146,514,41,412,41,262C41,86,152,0,284,0L476,0C503,0,521,12,521,38C521,64,503,76,476,76L286,76C204,76,128,132,135,248L469,248M389,627C404,631,418,639,418,650C418,673,407,710,383,710C375,710,366,708,357,705L177,635C158,627,147,620,147,606C147,590,160,568,174,568C184,568,200,574,221,580L389,627 Z"
   id="glyph327" />
</font>
</defs>
</svg>
