<?xml version="1.0" encoding="UTF-8" standalone="no"?>
<!-- Generator: PDFTron PDF2SVG Converter (DEMO VERSION) -->

<svg
   xmlns:dc="http://purl.org/dc/elements/1.1/"
   xmlns:cc="http://creativecommons.org/ns#"
   xmlns:rdf="http://www.w3.org/1999/02/22-rdf-syntax-ns#"
   xmlns:svg="http://www.w3.org/2000/svg"
   xmlns="http://www.w3.org/2000/svg"
   xmlns:sodipodi="http://sodipodi.sourceforge.net/DTD/sodipodi-0.dtd"
   xmlns:inkscape="http://www.inkscape.org/namespaces/inkscape"
   id="svgRoot"
   viewBox="0 0 600 600"
   xml:space="preserve"
   version="1.1"
   inkscape:version="0.48.2 r9819"
   width="100%"
   height="100%"
   sodipodi:docname="tpm.emf"><metadata
   id="metadata417"><rdf:RDF><cc:Work
       rdf:about=""><dc:format>image/svg+xml</dc:format><dc:type
         rdf:resource="http://purl.org/dc/dcmitype/StillImage" /><dc:title></dc:title></cc:Work></rdf:RDF></metadata><sodipodi:namedview
   pagecolor="#ffffff"
   bordercolor="#666666"
   borderopacity="1"
   objecttolerance="10"
   gridtolerance="10"
   guidetolerance="10"
   inkscape:pageopacity="0"
   inkscape:pageshadow="2"
   inkscape:window-width="959"
   inkscape:window-height="1007"
   id="namedview415"
   showgrid="false"
   fit-margin-top="0"
   fit-margin-left="0"
   fit-margin-right="0"
   fit-margin-bottom="0"
   inkscape:zoom="0.39643877"
   inkscape:cx="563.41023"
   inkscape:cy="242.11157"
   inkscape:window-x="0"
   inkscape:window-y="0"
   inkscape:window-maximized="0"
   inkscape:current-layer="svgRoot" />
<defs
   id="defs3">
<font
   horiz-adv-x="0"
   id="font5"
   horiz-origin-x="0"
   horiz-origin-y="0"
   vert-origin-x="45"
   vert-origin-y="90"
   vert-adv-y="90"><font-face
   font-family="fnt0"
   units-per-em="1000"
   ascent="962"
   descent="-240"
   id="font-face7" />
<missing-glyph
   horiz-adv-x="0"
   id="missing-glyph9" />
<glyph
   unicode="-"
   horiz-adv-x="426"
   d="M367,225L367,346L59,346L59,225L367,225 Z"
   id="glyph11" />
<glyph
   unicode="."
   horiz-adv-x="285"
   d="M217,0L217,148L68,148L68,0L217,0 Z"
   id="glyph13" />
<glyph
   unicode="a"
   horiz-adv-x="534"
   d="M467,0L467,343C467,465,391,527,245,527C158,527,108,511,57,455L140,374C167,405,190,417,240,417C309,417,337,392,337,335L337,309L214,309C93,309,36,241,36,158C36,112,51,70,79,41C110,10,153,-5,212,-5C272,-5,305,10,340,45L340,0L467,0M337,192C337,160,332,139,318,126C295,104,272,101,236,101C185,101,161,125,161,161C161,198,187,220,234,220L337,220L337,192 Z"
   id="glyph15" />
<glyph
   unicode="f"
   horiz-adv-x="342"
   d="M315,407L315,506L219,506L219,563C219,593,233,610,264,610L315,610L315,720L241,720C135,720,89,645,89,571L89,506L35,506L35,407L89,407L89,0L219,0L219,407L315,407 Z"
   id="glyph17" />
<glyph
   unicode="g"
   horiz-adv-x="555"
   d="M482,19L482,521L356,521L356,472C320,512,284,527,229,527C178,527,133,510,104,481C55,432,51,366,51,275C51,184,55,117,104,68C133,39,177,22,228,22C279,22,318,36,352,74L352,21C352,-32,325,-87,247,-87C203,-87,174,-75,145,-47L64,-129C118,-181,173,-197,253,-197C393,-197,482,-106,482,19M352,275C352,206,343,139,266,139C189,139,181,206,181,275C181,344,189,410,266,410C343,410,352,344,352,275 Z"
   id="glyph19" />
<glyph
   unicode="l"
   horiz-adv-x="325"
   d="M294,0L294,110L244,110C211,110,198,126,198,157L198,712L68,712L68,149C68,75,113,0,220,0L294,0 Z"
   id="glyph21" />
<glyph
   unicode="m"
   horiz-adv-x="876"
   d="M809,0L809,333C809,390,794,439,752,481C723,510,676,527,624,527C559,527,512,507,468,461C435,506,388,527,330,527C282,527,234,508,200,473L200,521L73,521L73,0L203,0L203,315C203,386,249,410,290,410C331,410,376,386,376,315L376,0L506,0L506,318C506,386,553,410,593,410C634,410,679,386,679,315L679,0L809,0 Z"
   id="glyph23" />
<glyph
   unicode="o"
   horiz-adv-x="543"
   d="M492,261C492,355,480,414,433,463C401,497,348,527,271,527C194,527,142,497,110,463C63,414,51,355,51,261C51,166,63,107,110,58C142,24,194,-6,271,-6C348,-6,401,24,433,58C480,107,492,166,492,261M362,261C362,207,359,161,332,134C317,119,297,111,271,111C245,111,226,119,211,134C184,161,181,207,181,261C181,315,184,360,211,387C226,402,245,410,271,410C297,410,317,402,332,387C359,360,362,315,362,261 Z"
   id="glyph25" />
<glyph
   unicode="p"
   horiz-adv-x="560"
   d="M509,261C509,339,508,428,456,480C427,509,380,527,329,527C274,527,235,512,199,472L199,521L73,521L73,-191L203,-191L203,46C237,8,276,-6,329,-6C380,-6,427,12,456,41C508,93,509,183,509,261M379,261C379,176,369,111,291,111C213,111,203,176,203,261C203,346,213,410,291,410C369,410,379,346,379,261 Z"
   id="glyph27" />
<glyph
   unicode="r"
   horiz-adv-x="455"
   d="M454,478C418,514,382,527,331,527C275,527,225,501,200,471L200,521L73,521L73,0L203,0L203,314C203,380,247,410,287,410C319,410,336,399,356,379L454,478 Z"
   id="glyph29" />
<glyph
   unicode="t"
   horiz-adv-x="352"
   d="M307,0L307,110L260,110C229,110,215,127,215,157L215,407L307,407L307,506L215,506L215,660L85,660L85,506L30,506L30,407L85,407L85,149C85,75,130,0,236,0L307,0 Z"
   id="glyph31" />
<glyph
   unicode="w"
   horiz-adv-x="759"
   d="M755,521L618,521L534,199L427,521L332,521L226,199L142,521L4,521L164,0L271,0L380,327L489,0L596,0L755,521 Z"
   id="glyph33" />
</font>
<font
   horiz-adv-x="0"
   id="font35"
   horiz-origin-x="0"
   horiz-origin-y="0"
   vert-origin-x="45"
   vert-origin-y="90"
   vert-adv-y="90"><font-face
   font-family="fnt1"
   units-per-em="1000"
   ascent="962"
   descent="-240"
   id="font-face37" />
<missing-glyph
   horiz-adv-x="0"
   id="missing-glyph39" />
<glyph
   unicode=" "
   horiz-adv-x="249"
   d="M0 0 Z"
   id="glyph41" />
<glyph
   unicode="L"
   horiz-adv-x="573"
   d="M543,0L543,68L179,68L179,712L103,712L103,0L543,0 Z"
   id="glyph43" />
<glyph
   unicode="T"
   horiz-adv-x="548"
   d="M518,644L518,712L30,712L30,644L236,644L236,0L312,0L312,644L518,644 Z"
   id="glyph45" />
<glyph
   unicode="b"
   horiz-adv-x="545"
   d="M481,246C481,323,471,405,421,455C395,481,351,498,301,498C247,498,202,486,162,435L162,712L90,712L90,0L162,0L162,59C202,7,247,-6,301,-6C351,-6,395,11,421,37C471,87,481,169,481,246M409,246C409,150,393,58,286,58C179,58,162,150,162,246C162,342,179,434,286,434C393,434,409,342,409,246 Z"
   id="glyph47" />
<glyph
   unicode="e"
   horiz-adv-x="530"
   d="M467,227L467,260C467,406,392,498,265,498C140,498,63,405,63,246C63,72,148,-6,278,-6C362,-6,408,20,458,70L409,113C370,74,337,57,280,57C186,57,135,119,135,227L467,227M395,281L135,281C137,321,139,336,150,363C169,408,213,437,265,437C317,437,361,408,380,363C391,336,393,321,395,281 Z"
   id="glyph49" />
<glyph
   unicode="h"
   horiz-adv-x="562"
   d="M477,0L477,316C477,427,411,498,300,498C245,498,198,479,162,438L162,712L90,712L90,0L162,0L162,304C162,389,211,434,285,434C359,434,405,390,405,304L405,0L477,0 Z"
   id="glyph51" />
<glyph
   unicode="i"
   horiz-adv-x="253"
   d="M162,0L162,492L90,492L90,0L162,0M167,632L167,713L86,713L86,632L167,632 Z"
   id="glyph53" />
<glyph
   unicode="r"
   horiz-adv-x="421"
   d="M418,452C383,487,347,498,300,498C243,498,189,473,162,432L162,492L90,492L90,0L162,0L162,302C162,377,208,434,280,434C318,434,338,425,365,398L418,452 Z"
   id="glyph55" />
<glyph
   unicode="t"
   horiz-adv-x="332"
   d="M279,0L279,62L241,62C195,62,174,89,174,134L174,434L279,434L279,489L174,489L174,643L102,643L102,489L40,489L40,434L102,434L102,132C102,59,144,0,228,0L279,0 Z"
   id="glyph57" />
<glyph
   unicode="â"
   horiz-adv-x="526"
   d="M441,0L441,334C441,441,376,498,244,498C164,498,114,482,70,425L119,380C148,421,180,436,243,436C333,436,369,400,369,328L369,281L221,281C111,281,51,225,51,139C51,100,64,63,88,39C119,7,159,-6,227,-6C293,-6,329,7,369,47L369,0L441,0M369,174C369,133,361,105,344,89C313,59,276,56,234,56C156,56,121,83,121,140C121,197,157,227,231,227L369,227L369,174M411,594L286,747L218,747L93,594L162,594L252,698L342,594L411,594 Z"
   id="glyph59" />
<glyph
   unicode="é"
   horiz-adv-x="530"
   d="M467,227L467,260C467,406,392,498,265,498C140,498,63,405,63,246C63,72,148,-6,278,-6C362,-6,408,20,458,70L409,113C370,74,337,57,280,57C186,57,135,119,135,227L467,227M395,281L135,281C137,321,139,336,150,363C169,408,213,437,265,437C317,437,361,408,380,363C391,336,393,321,395,281M393,747L307,747L219,594L285,594L393,747 Z"
   id="glyph61" />
</font>
<font
   horiz-adv-x="0"
   id="font63"
   horiz-origin-x="0"
   horiz-origin-y="0"
   vert-origin-x="45"
   vert-origin-y="90"
   vert-adv-y="90"><font-face
   font-family="fnt2"
   units-per-em="1000"
   ascent="962"
   descent="-240"
   id="font-face65" />
<missing-glyph
   horiz-adv-x="0"
   id="missing-glyph67" />
<glyph
   unicode="E"
   horiz-adv-x="598"
   d="M110,0L542,0L542,48L164,48L164,335L486,335L486,383L164,383L164,664L542,664L542,712L110,712L110,0 Z"
   id="glyph69" />
<glyph
   unicode="G"
   horiz-adv-x="651"
   d="M571,248L571,364L326,364L326,316L517,316L517,252C517,191,505,150,474,111C437,66,382,42,326,42C275,42,227,61,191,97C140,148,136,204,136,356C136,508,140,564,191,615C227,651,275,670,326,670C422,670,494,609,515,510L569,510C548,635,450,718,326,718C258,718,195,692,148,645C83,580,82,517,82,356C82,196,83,132,148,67C195,20,258,-6,326,-6C398,-6,466,24,513,76C556,121,571,173,571,248 Z"
   id="glyph71" />
<glyph
   unicode="I"
   horiz-adv-x="274"
   d="M110,0L164,0L164,712L110,712L110,0 Z"
   id="glyph73" />
<glyph
   unicode="N"
   horiz-adv-x="739"
   d="M575,0L629,0L629,712L575,712L575,95L164,712L110,712L110,0L164,0L164,619L575,0 Z"
   id="glyph75" />
<glyph
   unicode="O"
   horiz-adv-x="652"
   d="M570,356C570,517,569,580,504,645C457,692,394,718,326,718C258,718,195,692,148,645C83,580,82,517,82,356C82,196,83,132,148,67C195,20,258,-6,326,-6C394,-6,457,20,504,67C569,132,570,196,570,356M516,356C516,204,512,148,461,97C425,61,377,42,326,42C275,42,227,61,191,97C140,148,136,204,136,356C136,508,140,564,191,615C227,651,275,670,326,670C377,670,425,651,461,615C512,564,516,508,516,356 Z"
   id="glyph77" />
<glyph
   unicode="R"
   horiz-adv-x="657"
   d="M530,0L593,0L421,329C521,346,585,414,585,521C585,645,497,712,381,712L110,712L110,0L164,0L164,328L360,328L530,0M531,520C531,421,466,376,374,376L164,376L164,664L374,664C466,664,531,619,531,520 Z"
   id="glyph79" />
<glyph
   unicode="S"
   horiz-adv-x="587"
   d="M528,191C528,248,505,297,466,329C437,354,406,367,339,376L262,388C222,395,181,411,156,432C131,453,119,484,119,525C119,616,180,672,284,672C368,672,415,646,457,606L492,641C431,694,375,718,287,718C150,718,66,643,66,523C66,467,85,423,122,392C153,365,195,348,249,340L332,327C391,319,408,310,435,289C462,266,474,232,474,189C474,96,404,42,291,42C206,42,153,62,89,126L51,88C116,23,183,-6,288,-6C437,-6,528,70,528,191 Z"
   id="glyph81" />
</font>
</defs>
</svg>
